Kết quả từ 1 tới 5 trên 5
  1. #1
    Digital-4k ducphu's Avatar
    Đăng ký
    17-02-11
    Bài viết
    5.519
    Thanks
    12.948
    Thanked
    76.465
    cR
    42.183

    Mặc định Hoàng Hậu Nhân Hiền | Queen In-Hyun’s Man - 720P.HDTV USLT

    Hoàng Hậu Nhân Hiền - 720P HDTV USLT
    Queen In-Hyun’s Man - 16/16 Tập





    Code:
    General
    Complete name                            : Hoàng Hậu Nhân Hiền - Queen In-Hyun’s Man (16 Tap) HD720p (USLT )\01_HoangHauNhanHien.720p.mkv
    Format                                   : Matroska
    Format version                           : Version 2
    File size                                : 1.52 GiB
    Duration                                 : 45mn 14s
    Overall bit rate                         : 4 799 Kbps
    Encoded date                             : UTC 2013-01-19 19:17:23
    Writing application                      : mkvmerge v2.9.7 ('Tenderness') built on Jul  1 2009 18:43:35
    Writing library                          : libebml v0.7.7 + libmatroska v0.8.1
    
    Video
    ID                                       : 1
    Format                                   : AVC
    Format/Info                              : Advanced Video Codec
    Format profile                           : High@L4.1
    Format settings, CABAC                   : Yes
    Format settings, ReFrames                : 9 frames
    Codec ID                                 : V_MPEG4/ISO/AVC
    Duration                                 : 45mn 14s
    Bit rate                                 : 4 222 Kbps
    Width                                    : 1 280 pixels
    Height                                   : 720 pixels
    Display aspect ratio                     : 16:9
    Frame rate mode                          : Constant
    Frame rate                               : 29.970 fps
    Color space                              : YUV
    Chroma subsampling                       : 4:2:0
    Bit depth                                : 8 bits
    Scan type                                : Progressive
    Bits/(Pixel*Frame)                       : 0.153
    Stream size                              : 1.30 GiB (86%)
    Writing library                          : x264 core 120 r2164 da19765
    Encoding settings                        : cabac=1 / ref=9 / deblock=1:-1:-1 / analyse=0x3:0x133 / me=umh / subme=9 / psy=1 / psy_rd=1.00:0.00 / mixed_ref=1 / me_range=32 / chroma_me=1 / trellis=2 / 8x8dct=1 / cqm=0 / deadzone=21,11 / fast_pskip=0 / chroma_qp_offset=-2 / threads=6 / sliced_threads=0 / nr=0 / decimate=0 / interlaced=0 / bluray_compat=0 / constrained_intra=0 / bframes=6 / b_pyramid=2 / b_adapt=2 / b_bias=0 / direct=3 / weightb=1 / open_gop=0 / weightp=2 / keyint=250 / keyint_min=25 / scenecut=40 / intra_refresh=0 / rc_lookahead=50 / rc=2pass / mbtree=1 / bitrate=4222 / ratetol=1.0 / qcomp=0.60 / qpmin=0 / qpmax=69 / qpstep=4 / cplxblur=20.0 / qblur=0.5 / vbv_maxrate=50000 / vbv_bufsize=50000 / nal_hrd=none / ip_ratio=1.40 / aq=1:1.00
    Language                                 : English
    Default                                  : Yes
    Forced                                   : No
    
    Audio #1
    ID                                       : 2
    Format                                   : AC-3
    Format/Info                              : Audio Coding 3
    Mode extension                           : CM (complete main)
    Format settings, Endianness              : Big
    Codec ID                                 : A_AC3
    Duration                                 : 45mn 14s
    Bit rate mode                            : Constant
    Bit rate                                 : 192 Kbps
    Channel(s)                               : 2 channels
    Channel positions                        : Front: L R
    Sampling rate                            : 48.0 KHz
    Bit depth                                : 16 bits
    Compression mode                         : Lossy
    Stream size                              : 62.1 MiB (4%)
    Language                                 : Vietnamese
    Default                                  : Yes
    Forced                                   : No
    
    Audio #2
    ID                                       : 3
    Format                                   : AC-3
    Format/Info                              : Audio Coding 3
    Mode extension                           : CM (complete main)
    Format settings, Endianness              : Big
    Codec ID                                 : A_AC3
    Duration                                 : 45mn 14s
    Bit rate mode                            : Constant
    Bit rate                                 : 384 Kbps
    Channel(s)                               : 6 channels
    Channel positions                        : Front: L C R, Side: L R, LFE
    Sampling rate                            : 48.0 KHz
    Bit depth                                : 16 bits
    Compression mode                         : Lossy
    Delay relative to video                  : 32ms
    Stream size                              : 124 MiB (8%)
    Language                                 : Korean
    Default                                  : No
    Forced                                   : No

    Tên tiếng Anh: Queen In-Hyun’s Man
    Tên gốc: 인현왕후의 남자
    Đạo diễn: Kim Byung Soo
    Biên kịch: Song Jae Jung
    Thể loại: Lãng mạn, giả tưởng
    Kênh phát hành: tvN
    Số tập: 16 tập
    Diễn viên :
    Ji Hyun Woo vai Park Boong Do
    Yoo In Na vai Choi Hee Jin
    Kim Jin Woo vai Han Dong Min
    Ga Deuk Hi vai Jo Soo Kyung
    Park Young Rin vai Yoon Na Jung
    Jo Dal Hwan vai Chun Soo
    Uhm Hyo Sup vai Min Ahm
    Lee Kwan Hoon vai Ja Soo
    Jin Ye Sol vai Yoon Wol
    Ji Nam Hyuk vai Han Dong
    Seo Woo Jin vai King Sukjong
    Kim Hae In vai Queen In Hyun
    Choi Woo Ri vai Jang Hee Bin
    Kim Won Hae vai Officer Hong
    Kim Kyul vai Young Myung

    Bạn nhấn nút Thanks, sau đó nhấn F5 để lấy link nhé!
    Chúc các bạn xem phim vui vẻ !

    The Silence Of The Lambs (1991) 720p BluRay DTS x264-HiDt (5 giải Oscar)
    2012 - Ngày Tận Thế (2009) 1080p BluRay DTS x264-CtrlHD
    [Kinh Dị] Flower and Snake 3 (2010) BluRay.720p.AC3.x264 (18+)
    [Kinh Dị] Wrong Turn 5 (2012) 720p Blu-ray DTS x264-CHD (18+)
    V/H/S (2012) 720p Blu-ray DTS x264-CHD - Đoạn Băng Kinh Hoàng (18+)
    [EMMANNELLE] Queen.Of.The.Galaxy.1994.TW.BluRay.720p.DTS.x264-CHD (18+)


    -----------------------------------------------------------------
    Chỉnh sửa nội dung bởi: ducphu, 27-08-2013 lúc 21:15 Lý do: Cập nhật nội dung!

  2. 141 người đã cảm ơn ducphu


  3. #2
    HD-upscale HD vip's Avatar
    Đăng ký
    29-09-11
    Bài viết
    57
    Thanks
    135
    Thanked
    74
    cR
    14

    Mặc định Re: Hoàng Hậu Nhân Hiền | Queen In-Hyun’s Man - 720P.HDTV USLT

    Mình thích thể loại này, cám ơn bác chủ nhiều!

  4. 2 người đã cảm ơn HD vip


  5. #3
    Digital-4k ducphu's Avatar
    Đăng ký
    17-02-11
    Bài viết
    5.519
    Thanks
    12.948
    Thanked
    76.465
    cR
    42.183

    Mặc định Re: Hoàng Hậu Nhân Hiền | Queen In-Hyun’s Man - 720P.HDTV USLT

    Trích Nguyên văn bởi HD vip Xem bài viết
    Mình thích thể loại này, cám ơn bác chủ nhiều!
    Phim này Tết xem cũng vui lắm bác ạ!

  6. #4

    Mặc định Ðề: Hoàng Hậu Nhân Hiền | Queen In-Hyun’s Man - 720P.HDTV USLT

    cái này không có vietsub hả bạn

  7. The Following User Says Thank You to vespula For This Useful Post:

    ducphu 

  8. #5
    Digital-4k ducphu's Avatar
    Đăng ký
    17-02-11
    Bài viết
    5.519
    Thanks
    12.948
    Thanked
    76.465
    cR
    42.183

    Mặc định Re: Ðề: Hoàng Hậu Nhân Hiền | Queen In-Hyun’s Man - 720P.HDTV USLT

    Trích Nguyên văn bởi vespula Xem bài viết
    cái này không có vietsub hả bạn
    Mấy Thỏ Ngọc ở nhà thích xem lồng tiếng hơn chứ bác!

Tags for this Thread

Bookmarks

Quyền Sử Dụng Ở Diễn Ðàn

  • Bạn không được phép viết chủ đề mới
  • Bạn không được phép viết trả lời
  • Bạn không được phép gởi đính kèm
  • Bạn không được phép chỉnh sửa bài viết
  •  
Lên Trên! Xuống Dưới!