[Fshare] [ 4K |H. Động]Monsters of Man 2020 2160p UHD BluRay x265 10bit HDR DTS-HD.MA.7.1- - Quái Vật Của Con

Thảo luận trong '4K' bắt đầu bởi xemaydinh, 4/12/21.

  1. xemaydinh

    xemaydinh Tem

    Tham gia ngày:
    3/7/10
    Bài viết:
    32,945
    Đã được cảm ơn:
    148,220
    Monsters of Man 2020 2160p UHD BluRay x265 10bit HDR DTS-HD.MA.7.1-SWTYBLZ

    Quái Vật Của Con Người

    [​IMG]





    Một công ty chế tạo người máy đang cạnh tranh để giành được một hợp đồng quân sự béo bở hợp tác với một điệp viên CIA tham nhũng để tiến hành một cuộc thử nghiệm thực địa bất hợp pháp. Họ triển khai bốn robot nguyên mẫu được vũ khí hóa vào một trại sản xuất ma túy bị nghi ngờ ở Tam giác vàng, giả định rằng họ sẽ giết những kẻ chạy trốn ma túy mà không bỏ sót một ai. Sáu bác sĩ trong một nhiệm vụ nhân đạo chứng kiến cuộc tàn sát tàn bạo và trở thành mục tiêu hàng đầu ...

    Video

    ID : 1
    Format : HEVC
    Format/Info : High Efficiency Video Coding
    Format profile : Main [email protected]@High
    HDR format : SMPTE ST 2086, HDR10 compatible
    Codec ID : V_MPEGH/ISO/HEVC
    Duration : 2 h 11 min
    Bit rate : 9 393 kb/s
    Width : 3 840 pixels
    Height : 1 620 pixels
    Display aspect ratio : 2.40:1
    Frame rate mode : Constant
    Frame rate : 24.000 FPS
    Color space : YUV
    Chroma subsampling : 4:2:0 (Type 2)
    Bit depth : 10 bits
    Bits/(Pixel*Frame) : 0.063
    Stream size : 8.65 GiB (58%)
    Writing library : x265 3.0_Au+10-74a8672ea4f7:[Windows][GCC 8.2.1][64 bit] 10bit
    Encoding settings : cpuid=1111039 / frame-threads=6 / numa-pools=40 / wpp / no-pmode / no-pme / no-psnr / no-ssim / log-level=2 / input-csp=1 / input-res=3840x1620 / interlace=0 / total-frames=0 / level-idc=51 / high-tier=1 / uhd-bd=0 / ref=3 / no-allow-non-conformance / repeat-headers / annexb / aud / hrd / info / hash=0 / no-temporal-layers / no-open-gop / min-keyint=1 / keyint=24 / gop-lookahead=0 / bframes=4 / b-adapt=2 / b-pyramid / bframe-bias=0 / rc-lookahead=25 / lookahead-slices=4 / scenecut=40 / radl=0 / no-splice / no-intra-refresh / ctu=64 / min-cu-size=8 / no-rect / no-amp / max-tu-size=32 / tu-inter-depth=1 / tu-intra-depth=1 / limit-tu=0 / rdoq-level=0 / dynamic-rd=0.00 / no-ssim-rd / signhide / no-tskip / nr-intra=0 / nr-inter=0 / no-constrained-intra / strong-intra-smoothing / max-merge=2 / limit-refs=3 / no-limit-modes / me=1 / subme=2 / merange=57 / temporal-mvp / weightp / no-weightb / no-analyze-src-pics / deblock=0:0 / no-sao / no-sao-non-deblock / rd=3 / no-early-skip / rskip / no-fast-intra / no-tskip-fast / no-cu-lossless / no-b-intra / no-splitrd-skip / rdpenalty=0 / psy-rd=2.00 / psy-rdoq=0.00 / no-rd-refine / no-lossless / cbqpoffs=0 / crqpoffs=0 / rc=crf / crf=16.0 / qcomp=0.60 / qpstep=4 / stats-write=0 / stats-read=0 / vbv-maxrate=160000 / vbv-bufsize=160000 / vbv-init=0.9 / crf-max=0.0 / crf-min=0.0 / ipratio=1.40 / pbratio=1.30 / aq-mode=1 / aq-strength=1.00 / cutree / zone-count=0 / no-strict-cbr / qg-size=32 / no-rc-grain / qpmax=69 / qpmin=0 / no-const-vbv / sar=1 / overscan=0 / videoformat=5 / range=0 / colorprim=9 / transfer=16 / colormatrix=9 / chromaloc=1 / chromaloc-top=2 / chromaloc-bottom=2 / display-window=0 / master-display=G(13250,34500)B(7500,3000)R(34000,16000)WP(15635,16450)L(10000000,50) / max-cll=996,269 / min-luma=0 / max-luma=1023 / log2-max-poc-lsb=8 / vui-timing-info / vui-hrd-info / slices=1 / opt-qp-pps / opt-ref-list-length-pps / no-multi-pass-opt-rps / scenecut-bias=0.05 / no-opt-cu-delta-qp / no-aq-motion / hdr / hdr-opt / no-dhdr10-opt / no-idr-recovery-sei / analysis-reuse-level=5 / scale-factor=0 / refine-intra=0 / refine-inter=0 / refine-mv=0 / refine-ctu-distortion=0 / no-limit-sao / ctu-info=0 / no-lowpass-dct / refine-analysis-type=2130177 / copy-pic=1 / max-ausize-factor=1.0 / no-dynamic-refine / no-single-sei / no-hevc-aq / no-svt / qp-adaptation-range=1.00
    Default : Yes
    Forced : No
    Color range : Limited
    Color primaries : BT.2020
    Transfer characteristics : PQ
    Matrix coefficients : BT.2020 non-constant
    Mastering display color primaries : Display P3
    Mastering display luminance : min: 0.0050 cd/m2, max: 1000 cd/m2
    Maximum Content Light Level : 996 cd/m2
    Maximum Frame-Average Light Level : 269 cd/m2

    Audio #1
    ID : 2
    Format : DTS XLL
    Format/Info : Digital Theater Systems
    Commercial name : DTS-HD Master Audio
    Codec ID : A_DTS
    Duration : 2 h 11 min
    Bit rate mode : Variable
    Bit rate : 6 005 kb/s
    Channel(s) : 8 channels
    Channel layout : C L R LFE Lb Rb Lss Rss
    Sampling rate : 48.0 kHz
    Frame rate : 93.750 FPS (512 SPF)
    Bit depth : 24 bits
    Compression mode : Lossless
    Stream size : 5.53 GiB (37%)
    Title : DTS-HD MA 7.1
    Language : English
    Default : Yes
    Forced : No

    Audio #2
    ID : 3
    Format : AC-3
    Format/Info : Audio Coding 3
    Commercial name : Dolby Digital
    Codec ID : A_AC3
    Duration : 2 h 11 min
    Bit rate mode : Constant
    Bit rate : 640 kb/s
    Channel(s) : 6 channels
    Channel layout : L R C LFE Ls Rs
    Sampling rate : 48.0 kHz
    Frame rate : 31.250 FPS (1536 SPF)
    Compression mode : Lossy
    Stream size : 604 MiB (4%)
    Title : DD 5.1
    Language : English
    Service kind : Complete Main
    Default : No
    Forced : No

    Text #1
    ID : 4
    Format : UTF-8
    Codec ID : S_TEXT/UTF8
    Codec ID/Info : UTF-8 Plain Text
    Duration : 1 h 51 min
    Bit rate : 1 b/s
    Count of elements : 49
    Stream size : 952 Bytes (0%)
    Title : FORCED
    Language : English
    Default : No
    Forced : Yes

    Text #2
    ID : 5
    Format : UTF-8
    Codec ID : S_TEXT/UTF8
    Codec ID/Info : UTF-8 Plain Text
    Duration : 2 h 10 min
    Bit rate : 43 b/s
    Count of elements : 1615
    Stream size : 42.0 KiB (0%)
    Language : English
    Default : Yes
    Forced : No

    Text #3
    ID : 6
    Format : UTF-8
    Codec ID : S_TEXT/UTF8
    Codec ID/Info : UTF-8 Plain Text
    Duration : 2 h 11 min
    Bit rate : 55 b/s
    Count of elements : 2116
    Stream size : 53.0 KiB (0%)
    Title : SDH
    Language : English
    Default : No
    Forced : No

    Text #4
    ID : 7
    Format : PGS
    Muxing mode : zlib
    Codec ID : S_HDMV/PGS
    Codec ID/Info : Picture based subtitle format used on BDs/HD-DVDs
    Duration : 1 h 51 min
    Bit rate : 834 b/s
    Count of elements : 98
    Stream size : 679 KiB (0%)
    Title : English (Forced)
    Language : English
    Default : No
    Forced : No

    Text #5
    ID : 8
    Format : PGS
    Muxing mode : zlib
    Codec ID : S_HDMV/PGS
    Codec ID/Info : Picture based subtitle format used on BDs/HD-DVDs
    Duration : 2 h 4 min
    Bit rate : 31.5 kb/s
    Count of elements : 3196
    Stream size : 28.1 MiB (0%)
    Title : English
    Language : English
    Default : No
    Forced : No

    Text #6
    ID : 9
    Format : PGS
    Muxing mode : zlib
    Codec ID : S_HDMV/PGS
    Codec ID/Info : Picture based subtitle format used on BDs/HD-DVDs
    Duration : 2 h 11 min
    Bit rate : 40.0 kb/s
    Count of elements : 4262
    Stream size : 37.6 MiB (0%)
    Title : English (SDH)
    Language : English
    Default : No
    Forced : No

    Text #7
    ID : 10
    Format : PGS
    Muxing mode : zlib
    Codec ID : S_HDMV/PGS
    Codec ID/Info : Picture based subtitle format used on BDs/HD-DVDs
    Duration : 2 h 5 min
    Bit rate : 25.4 kb/s
    Count of elements : 1968
    Stream size : 22.7 MiB (0%)
    Title : Dutch
    Language : Dutch
    Default : No
    Forced : No

    Text #8
    ID : 11
    Format : PGS
    Muxing mode : zlib
    Codec ID : S_HDMV/PGS
    Codec ID/Info : Picture based subtitle format used on BDs/HD-DVDs
    Duration : 2 h 9 min
    Bit rate : 21.6 kb/s
    Count of elements : 2540
    Stream size : 20.0 MiB (0%)
    Title : French
    Language : French
    Default : No
    Forced : No

    Text #9
    ID : 12
    Format : PGS
    Muxing mode : zlib
    Codec ID : S_HDMV/PGS
    Codec ID/Info : Picture based subtitle format used on BDs/HD-DVDs
    Duration : 2 h 11 min
    Bit rate : 26.2 kb/s
    Count of elements : 4006
    Stream size : 24.6 MiB (0%)
    Title : French (SDH)
    Language : French
    Default : No
    Forced : No

    Menu
    00:00:00.000 : en:Chapter 1
    00:15:23.042 : en:Chapter 2
    00:24:40.042 : en:Chapter 3
    00:34:05.458 : en:Chapter 4
    00:42:30.458 : en:Chapter 5
    00:50:46.875 : en:Chapter 6
    01:03:32.375 : en:Chapter 7
    01:13:45.542 : en:Chapter 8
    01:26:40.625 : en:Chapter 9
    01:39:59.250 : en:Chapter 10
    01:51:24.500 : en:Chapter 11
    02:06:16.667 : en:Chapter 12



    mhd

    720p

    1080p

    4k https://www.hdvietnam.com/threads/4...t-hdr-dts-hd-ma-7-1-quai-vat-cua-con.1739942/

    Thuyết minh

    Remux 4K https://www.hdvietnam.com/threads/r...c-dts-hd-ma-7-1-fgt-quai-vat-cua-con.1739833/

    ISO
     
    Chỉnh sửa cuối: 4/12/21

Chia sẻ trang này