[4K HDR] [GDRIVE] Men in Black: International 2019 2160p WEB-DL DD+5.1 HDR HEVC-DEFLATE

Thảo luận trong '4K' bắt đầu bởi Anh YAM, 20/8/19.

  1. Anh YAM

    Anh YAM Uploader

    Tham gia ngày:
    5/1/19
    Bài viết:
    8,799
    Đã được cảm ơn:
    161,313
    Giới tính:
    Nam
    Men in Black: International 2019 2160p WEB-DL DD+5.1 HDR HEVC-DEFLATE

    MKV | SIZE: 19.8 GB

    Đặc vụ áo đen: Sứ mệnh toàn cầu


    [​IMG][​IMG]


    Year: 2019

    Score: 5.6/10
    Votes: 39125
    Runtime: 114 mins
    Language: English
    Country: USA
    All Genres: Action, Adventure, Comedy, Sci-Fi
    Director: F. Gary Gray Danny Elfman

    Plot: The Men in Black have always protected the Earth from the scum of the universe. In this new adventure, they tackle their biggest threat to date: a mole in the Men in Black organization.

    Cast:
    Chris Hemsworth as Agent H
    Tessa Thompson as Agent M
    Kumail Nanjiani as Pawny
    Rebecca Ferguson as Riza
    Rafe Spall as Agent C
    Emma Thompson as Agent O




    ----------------------------------------
    Media Info

    [​IMG]


    General
    Unique ID : 197215408375774669378982968980408806552 (0x945E4E593290CBB537189228F646AC98)
    Complete name : C:\Users\tuananhops\Downloads\Men.in.Black.International.2019.INTERNAL.2160p.WEB.H265-DEFLATE.mkv
    Format : Matroska
    Format version : Version 4
    File size : 19.9 GiB
    Duration : 1 h 54 min
    Overall bit rate : 24.8 Mb/s
    Encoded date : UTC 2019-08-20 00:36:00
    Writing application : mkvmerge v35.0.0 (master: 2421163 / deflate: e647e65) [X86_64]
    Writing library : libebml v1.3.9 + libmatroska v1.5.2

    Video
    ID : 1
    Format : HEVC
    Format/Info : High Efficiency Video Coding
    Format profile : Main [email protected]@High
    Codec ID : V_MPEGH/ISO/HEVC
    Duration : 1 h 54 min
    Bit rate : 23.8 Mb/s
    Width : 3 840 pixels
    Height : 1 916 pixels
    Original height : 2 160 pixels
    Display aspect ratio : 16:9
    Frame rate mode : Constant
    Frame rate : 23.976 (24000/1001) FPS
    Color space : YUV
    Chroma subsampling : 4:2:0 (Type 2)
    Bit depth : 10 bits
    Bits/(Pixel*Frame) : 0.135
    Stream size : 19.1 GiB (96%)
    Language : English
    Default : Yes
    Forced : No
    Color range : Limited
    Color primaries : BT.709
    Transfer characteristics : BT.709
    Matrix coefficients : BT.709

    Audio
    ID : 2
    Format : E-AC-3 JOC
    Format/Info : Enhanced AC-3 with Joint Object Coding
    Commercial name : Dolby Digital Plus with Dolby Atmos
    Codec ID : A_EAC3
    Duration : 1 h 54 min
    Bit rate mode : Constant
    Bit rate : 448 kb/s
    Channel(s) : 6 channels
    Channel layout : L R C LFE Ls Rs
    Sampling rate : 48.0 kHz
    Frame rate : 31.250 FPS (1536 SPF)
    Compression mode : Lossy
    Delay relative to video : 1 s 43 ms
    Stream size : 368 MiB (2%)
    Language : English
    Service kind : Complete Main
    Default : Yes
    Forced : No
    Complexity index : 16
    Number of dynamic objects : 15
    Bed channel count : 1 channel
    Bed channel configuration : LFE

    Text #1
    ID : 3
    Format : UTF-8
    Codec ID : S_TEXT/UTF8
    Codec ID/Info : UTF-8 Plain Text
    Title : English
    Language : English
    Default : No
    Forced : No

    Text #2
    ID : 4
    Format : UTF-8
    Codec ID : S_TEXT/UTF8
    Codec ID/Info : UTF-8 Plain Text
    Title : English (SDH)
    Language : English
    Default : No
    Forced : No

    Menu
    00:00:00.000 : en:1
    00:07:57.000 : en:2
    00:15:31.000 : en:3
    00:20:07.000 : en:4
    00:27:14.000 : en:5
    00:34:26.000 : en:6
    00:46:06.000 : en:7
    00:50:28.000 : en:8
    00:58:56.000 : en:9
    01:03:08.000 : en:10
    01:10:46.000 : en:11
    01:14:30.000 : en:12
    01:25:25.000 : en:13
    01:28:43.000 : en:14
    01:34:22.000 : en:15
    01:43:24.000 : en:16





    ----------------------------------------

    Trailer



    [​IMG]

    [​IMG]

    [​IMG]

    [​IMG]
    Donwload

    GOOGLE DRIVE:
    Nhấn nút Cảm ơn (dưới chân bài) để thấy link!
    Nhấn nút Cảm ơn (dưới chân bài) để thấy link!
     
    Chỉnh sửa cuối: 28/8/19
  2. Đang tải...


  3. Anh YAM

    Anh YAM Uploader

    Tham gia ngày:
    5/1/19
    Bài viết:
    8,799
    Đã được cảm ơn:
    161,313
    Giới tính:
    Nam
    Men in Black: International 2019 2160p WEB-DL DD+5.1 HEVC-DEFLATE [NON HDR]

    MKV | SIZE: 19.9 GB
    MEDIA INFO
    General
    Filename.......: Men.in.Black.International.2019.INTERNAL.2160p.WEB.H265-DEFLATE.mkv
    Container......: Matroska
    Duration.......: 1h 54mn
    Size...........: 19.9 GiB

    Video
    Codec..........: HEVC Main 10 @ L5 @ High 10 bits
    Resolution.....: 3840x1916
    Bit rate.......: 23.8 Mbps
    Frame rate.....: 23.976 (24000/1001) fps

    Audio
    Format.........: E-AC-3
    Channels.......: 6 channels
    Bit rate.......: 448 Kbps
    Language.......: English

    Subtitles

     
  4. hdradio

    hdradio Member

    Tham gia ngày:
    4/6/12
    Bài viết:
    616
    Đã được cảm ơn:
    19
    Có file Fshare thì cho em xin với bác ơi. em cảm ơn ạ
     
  5. mx1

    mx1 Member

    Tham gia ngày:
    5/2/09
    Bài viết:
    263
    Đã được cảm ơn:
    19
    GG nó báo vậy là sao bác chủ ơi?
    upload_2019-8-21_11-59-58.png
     
  6. Anh YAM

    Anh YAM Uploader

    Tham gia ngày:
    5/1/19
    Bài viết:
    8,799
    Đã được cảm ơn:
    161,313
    Giới tính:
    Nam
    quá lượt tải ý mà bác để em ghi link Drive bác tạo bản sao ạ
     
  7. Anh YAM

    Anh YAM Uploader

    Tham gia ngày:
    5/1/19
    Bài viết:
    8,799
    Đã được cảm ơn:
    161,313
    Giới tính:
    Nam
  8. Anh YAM

    Anh YAM Uploader

    Tham gia ngày:
    5/1/19
    Bài viết:
    8,799
    Đã được cảm ơn:
    161,313
    Giới tính:
    Nam
    Fshare em hết dung lượng rồi nên em không up Fshare ạ
     
  9. leewanhee

    leewanhee Well-Known Member

    Tham gia ngày:
    6/12/09
    Bài viết:
    1,797
    Đã được cảm ơn:
    942
    Giới tính:
    Nam
    Nghề nghiệp:
    kế toán
    Nơi ở:
    Việt Nam
    xin link 4share. thank
     
  10. minhnewpro

    minhnewpro New Member

    Tham gia ngày:
    7/12/12
    Bài viết:
    3
    Đã được cảm ơn:
    1

Chia sẻ trang này