[Fshare] [4K-HDR |Hành động] The Suicide Squad 2021 2160p UHD BluRay x265 10bit HDR DTS-HD MA TrueHD.7.1.Atmo

Thảo luận trong '4K' bắt đầu bởi xemaydinh, 22/10/21.

  1. xemaydinh

    xemaydinh Tem

    Tham gia ngày:
    3/7/10
    Bài viết:
    33,015
    Đã được cảm ơn:
    148,985
    Mới cập nhật Remux 4K

    thuyết minh


    The Suicide Squad 2021 2160p UHD BluRay x265 10bit HDR DTS-HD MA TrueHD.7.1.Atmo

    Điệp Vụ Cảm Tử 2021
    [​IMG]


    Phim lấy bối cảnh giả tưởng tại đảo Corto Maltese (Nam Mỹ), quốc gia độc lập vừa trải qua đảo chính. Chế độ mới xây dựng cơ sở thí nghiệm Jotunheim, nghiên cứu Dự án Sao biển có nguy cơ hủy diệt Mỹ và thế giới. Để ngăn chặn, mật vụ Amanda Waller (Viola Davis) tập hợp các ác nhân nổi tiếng trong tù thành Đội đặc nhiệm X. Mỗi tên đều bị gắn bom ở cổ, nếu không tuân phục sẽ chết. Dưới sự chỉ huy của Rick Flag (Joel Kinnaman) và Bloodsport (Idris Elba), biệt đội cảm tử mới chia làm hai phe lên đường thực hiện nhiệm vụ.

    iVideo
    ID : 1
    Format : HEVC
    Format/Info : High Efficiency Video Coding
    Format profile : Main [email protected]@high
    HDR format : SMPTE ST 2086, HDR10 compatible
    Codec ID : V_MPEGH/ISO/HEVC
    Duration : 2 h 12 min
    Bit rate : 18.5 Mb/s
    Width : 3 840 pixels
    Height : 2 024 pixels
    Display aspect ratio : 1.897
    Frame rate mode : Constant
    Frame rate : 23.976 (24000/1001) FPS
    Color space : YUV
    Chroma subsampling : 4:2:0 (Type 2)
    Bit depth : 10 bits
    Bits/(Pixel*Frame) : 0.099
    Stream size : 17.1 GiB (68%)
    Writing library : x265 3.0_Au+10-74a8672ea4f7:[Windows][GCC 8.2.1][64 bit] 10bit
    Encoding settings : cpuid=1111039 / frame-threads=6 / numa-pools=40 / wpp / no-pmode / no-pme / no-psnr / no-ssim / log-level=2 / input-csp=1 / input-res=3840x2024 / interlace=0 / total-frames=0 / level-idc=51 / high-tier=1 / uhd-bd=0 / ref=3 / no-allow-non-conformance / repeat-headers / annexb / aud / hrd / info / hash=0 / no-temporal-layers / no-open-gop / min-keyint=1 / keyint=24 / gop-lookahead=0 / bframes=4 / b-adapt=2 / b-pyramid / bframe-bias=0 / rc-lookahead=25 / lookahead-slices=4 / scenecut=40 / radl=0 / no-splice / no-intra-refresh / ctu=64 / min-cu-size=8 / no-rect / no-amp / max-tu-size=32 / tu-inter-depth=1 / tu-intra-depth=1 / limit-tu=0 / rdoq-level=0 / dynamic-rd=0.00 / no-ssim-rd / signhide / no-tskip / nr-intra=0 / nr-inter=0 / no-constrained-intra / strong-intra-smoothing / max-merge=2 / limit-refs=3 / no-limit-modes / me=1 / subme=2 / merange=57 / temporal-mvp / weightp / no-weightb / no-analyze-src-pics / deblock=0:0 / no-sao / no-sao-non-deblock / rd=3 / no-early-skip / rskip / no-fast-intra / no-tskip-fast / no-cu-lossless / no-b-intra / no-splitrd-skip / rdpenalty=0 / psy-rd=2.00 / psy-rdoq=0.00 / no-rd-refine / no-lossless / cbqpoffs=0 / crqpoffs=0 / rc=crf / crf=16.0 / qcomp=0.60 / qpstep=4 / stats-write=0 / stats-read=0 / vbv-maxrate=160000 / vbv-bufsize=160000 / vbv-init=0.9 / crf-max=0.0 / crf-min=0.0 / ipratio=1.40 / pbratio=1.30 / aq-mode=1 / aq-strength=1.00 / cutree / zone-count=0 / no-strict-cbr / qg-size=32 / no-rc-grain / qpmax=69 / qpmin=0 / no-const-vbv / sar=1 / overscan=0 / videoformat=5 / range=0 / colorprim=9 / transfer=16 / colormatrix=9 / chromaloc=1 / chromaloc-top=2 / chromaloc-bottom=2 / display-window=0 / master-display=G(13250,34500)B(7500,3000)R(34000,16000)WP(15635,16450)L(10000000,01) / max-cll=571,257 / min-luma=0 / max-luma=1023 / log2-max-poc-lsb=8 / vui-timing-info / vui-hrd-info / slices=1 / opt-qp-pps / opt-ref-list-length-pps / no-multi-pass-opt-rps / scenecut-bias=0.05 / no-opt-cu-delta-qp / no-aq-motion / hdr / hdr-opt / no-dhdr10-opt / no-idr-recovery-sei / analysis-reuse-level=5 / scale-factor=0 / refine-intra=0 / refine-inter=0 / refine-mv=0 / refine-ctu-distortion=0 / no-limit-sao / ctu-info=0 / no-lowpass-dct / refine-analysis-type=257952352 / copy-pic=1 / max-ausize-factor=1.0 / no-dynamic-refine / no-single-sei / no-hevc-aq / no-svt / qp-adaptation-range=1.00
    Default : Yes
    Forced : No
    Color range : Limited
    Color primaries : BT.2020
    Transfer characteristics : PQ
    Matrix coefficients : BT.2020 non-constant
    Mastering display color primaries : Display P3
    Mastering display luminance : min: 0.0001 cd/m2, max: 1000 cd/m2
    Maximum Content Light Level : 571 cd/m2
    Maximum Frame-Average Light Level : 257 cd/m2

    Audio #1
    ID : 2
    ID in the original source medium : 4352 (0x1100)
    Format : MLP FBA 16-ch
    Format/Info : Meridian Lossless Packing FBA with 16-channel presentation
    Commercial name : Dolby TrueHD with Dolby Atmos
    Codec ID : A_TRUEHD
    Duration : 2 h 12 min
    Bit rate mode : Variable
    Bit rate : 3 455 kb/s
    Maximum bit rate : 5 478 kb/s
    Channel(s) : 8 channels
    Channel layout : L R C LFE Ls Rs Lb Rb
    Sampling rate : 48.0 kHz
    Frame rate : 1 200.000 FPS (40 SPF)
    Bit depth : 24 bits
    Compression mode : Lossless
    Stream size : 3.19 GiB (13%)
    Title : TrueHD 7.1 Atmos
    Language : English
    Default : Yes
    Forced : No
    Original source medium : Blu-ray
    Number of dynamic objects : 11
    Bed channel count : 1 channel
    Bed channel configuration : LFE

    Audio #2
    ID : 3
    Format : DTS XLL
    Format/Info : Digital Theater Systems
    Commercial name : DTS-HD Master Audio
    Codec ID : A_DTS
    Duration : 2 h 12 min
    Bit rate mode : Variable
    Bit rate : 4 480 kb/s
    Channel(s) : 8 channels
    Channel layout : C L R LFE Lb Rb Lss Rss
    Sampling rate : 48.0 kHz
    Frame rate : 93.750 FPS (512 SPF)
    Bit depth : 24 bits
    Compression mode : Lossless
    Stream size : 4.13 GiB (17%)
    Title : DTS-HD MA 7.1
    Language : English
    Default : No
    Forced : No

    Audio #3
    ID : 4
    ID in the original source medium : 4352 (0x1100)
    Format : AC-3
    Format/Info : Audio Coding 3
    Commercial name : Dolby Digital
    Format settings : Dolby Surround EX
    Codec ID : A_AC3
    Duration : 2 h 12 min
    Bit rate mode : Constant
    Bit rate : 448 kb/s
    Channel(s) : 6 channels
    Channel layout : L R C LFE Ls Rs
    Sampling rate : 48.0 kHz
    Frame rate : 31.250 FPS (1536 SPF)
    Compression mode : Lossy
    Stream size : 423 MiB (2%)
    Title : DD 5.1
    Language : English
    Service kind : Complete Main
    Default : No
    Forced : No
    Original source medium : Blu-ray

    Text #1
    ID : 5
    Format : UTF-8
    Codec ID : S_TEXT/UTF8
    Codec ID/Info : UTF-8 Plain Text
    Duration : 2 h 11 min
    Bit rate : 44 b/s
    Count of elements : 1415
    Stream size : 43.2 KiB (0%)
    Title : SRT
    Language : English
    Default : Yes
    Forced : No

    Text #2
    ID : 6
    Format : UTF-8
    Codec ID : S_TEXT/UTF8
    Codec ID/Info : UTF-8 Plain Text
    Duration : 2 h 11 min
    Bit rate : 57 b/s
    Count of elements : 1919
    Stream size : 55.0 KiB (0%)
    Title : SDH SRT
    Language : English
    Default : No
    Forced : No

    Text #3
    ID : 7
    ID in the original source medium : 4768 (0x12A0)
    Format : PGS
    Muxing mode : zlib
    Codec ID : S_HDMV/PGS
    Codec ID/Info : Picture based subtitle format used on BDs/HD-DVDs
    Duration : 2 h 11 min
    Bit rate : 36.5 kb/s
    Count of elements : 3892
    Stream size : 34.4 MiB (0%)
    Language : English
    Default : No
    Forced : No
    Original source medium : Blu-ray

    Text #4
    ID : 8
    ID in the original source medium : 4769 (0x12A1)
    Format : PGS
    Muxing mode : zlib
    Codec ID : S_HDMV/PGS
    Codec ID/Info : Picture based subtitle format used on BDs/HD-DVDs
    Duration : 2 h 11 min
    Bit rate : 21.0 kb/s
    Count of elements : 2530
    Stream size : 19.8 MiB (0%)
    Language : French
    Default : No
    Forced : No
    Original source medium : Blu-ray

    Text #5
    ID : 9
    ID in the original source medium : 4770 (0x12A2)
    Format : PGS
    Muxing mode : zlib
    Codec ID : S_HDMV/PGS
    Codec ID/Info : Picture based subtitle format used on BDs/HD-DVDs
    Duration : 2 h 11 min
    Bit rate : 31.4 kb/s
    Count of elements : 3756
    Stream size : 29.5 MiB (0%)
    Language : Italian
    Default : No
    Forced : No
    Original source medium : Blu-ray

    Text #6
    ID : 10
    ID in the original source medium : 4771 (0x12A3)
    Format : PGS
    Muxing mode : zlib
    Codec ID : S_HDMV/PGS
    Codec ID/Info : Picture based subtitle format used on BDs/HD-DVDs
    Duration : 2 h 9 min
    Bit rate : 22.4 kb/s
    Count of elements : 2362
    Stream size : 20.9 MiB (0%)
    Language : Spanish
    Default : No
    Forced : No
    Original source medium : Blu-ray

    Text #7
    ID : 11
    ID in the original source medium : 4772 (0x12A4)
    Format : PGS
    Muxing mode : zlib
    Codec ID : S_HDMV/PGS
    Codec ID/Info : Picture based subtitle format used on BDs/HD-DVDs
    Duration : 2 h 9 min
    Bit rate : 24.0 kb/s
    Count of elements : 2408
    Stream size : 22.3 MiB (0%)
    Language : Spanish
    Default : No
    Forced : No
    Original source medium : Blu-ray

    Text #8
    ID : 12
    ID in the original source medium : 4773 (0x12A5)
    Format : PGS
    Muxing mode : zlib
    Codec ID : S_HDMV/PGS
    Codec ID/Info : Picture based subtitle format used on BDs/HD-DVDs
    Duration : 2 h 9 min
    Bit rate : 20.7 kb/s
    Count of elements : 1742
    Stream size : 19.2 MiB (0%)
    Language : Danish
    Default : No
    Forced : No
    Original source medium : Blu-ray

    Text #9
    ID : 13
    ID in the original source medium : 4774 (0x12A6)
    Format : PGS
    Muxing mode : zlib
    Codec ID : S_HDMV/PGS
    Codec ID/Info : Picture based subtitle format used on BDs/HD-DVDs
    Duration : 2 h 9 min
    Bit rate : 25.9 kb/s
    Count of elements : 2638
    Stream size : 24.0 MiB (0%)
    Language : Finnish
    Default : No
    Forced : No
    Original source medium : Blu-ray

    Text #10
    ID : 14
    ID in the original source medium : 4775 (0x12A7)
    Format : PGS
    Muxing mode : zlib
    Codec ID : S_HDMV/PGS
    Codec ID/Info : Picture based subtitle format used on BDs/HD-DVDs
    Duration : 2 h 9 min
    Bit rate : 24.2 kb/s
    Count of elements : 2572
    Stream size : 22.4 MiB (0%)
    Language : Greek
    Default : No
    Forced : No
    Original source medium : Blu-ray

    Text #11
    ID : 15
    ID in the original source medium : 4776 (0x12A8)
    Format : PGS
    Muxing mode : zlib
    Codec ID : S_HDMV/PGS
    Codec ID/Info : Picture based subtitle format used on BDs/HD-DVDs
    Duration : 2 h 9 min
    Bit rate : 25.9 kb/s
    Count of elements : 2644
    Stream size : 24.0 MiB (0%)
    Language : Hungarian
    Default : No
    Forced : No
    Original source medium : Blu-ray

    Text #12
    ID : 16
    ID in the original source medium : 4777 (0x12A9)
    Format : PGS
    Muxing mode : zlib
    Codec ID : S_HDMV/PGS
    Codec ID/Info : Picture based subtitle format used on BDs/HD-DVDs
    Duration : 2 h 9 min
    Bit rate : 22.2 kb/s
    Count of elements : 2048
    Stream size : 20.7 MiB (0%)
    Language : Norwegian
    Default : No
    Forced : No
    Original source medium : Blu-ray

    Text #13
    ID : 17
    ID in the original source medium : 4778 (0x12AA)
    Format : PGS
    Muxing mode : zlib
    Codec ID : S_HDMV/PGS
    Codec ID/Info : Picture based subtitle format used on BDs/HD-DVDs
    Duration : 2 h 9 min
    Bit rate : 21.4 kb/s
    Count of elements : 2534
    Stream size : 19.8 MiB (0%)
    Language : Polish
    Default : No
    Forced : No
    Original source medium : Blu-ray

    Text #14
    ID : 18
    ID in the original source medium : 4779 (0x12AB)
    Format : PGS
    Muxing mode : zlib
    Codec ID : S_HDMV/PGS
    Codec ID/Info : Picture based subtitle format used on BDs/HD-DVDs
    Duration : 2 h 9 min
    Bit rate : 23.7 kb/s
    Count of elements : 2476
    Stream size : 22.0 MiB (0%)
    Language : Romanian
    Default : No
    Forced : No
    Original source medium : Blu-ray

    Text #15
    ID : 19
    ID in the original source medium : 4780 (0x12AC)
    Format : PGS
    Muxing mode : zlib
    Codec ID : S_HDMV/PGS
    Codec ID/Info : Picture based subtitle format used on BDs/HD-DVDs
    Duration : 2 h 9 min
    Bit rate : 20.4 kb/s
    Count of elements : 1938
    Stream size : 18.9 MiB (0%)
    Language : Swedish
    Default : No
    Forced : No
    Original source medium : Blu-ray

    Menu
    00:00:00.000 : en:Chapter 01
    00:14:25.614 : en:Chapter 02
    00:22:08.035 : en:Chapter 03
    00:31:31.973 : en:Chapter 04
    00:40:48.362 : en:Chapter 05
    00:50:19.933 : en:Chapter 06
    01:01:09.332 : en:Chapter 07
    01:10:05.868 : en:Chapter 08
    01:19:44.488 : en:Chapter 09
    01:29:00.793 : en:Chapter 10
    01:40:41.160 : en:Chapter 11
    01:50:37.130 : en:Chapter 12
    01:59:28.536 : en:Chapter 13





    mhd https://www.hdvietnam.com/threads/h...-bluray-dd5-1x264-xmd-diep-vu-cam-tu.1721968/

    720p https://www.hdvietnam.com/threads/h...-720p-bluray-x264-dts-diep-vu-cam-tu.1721966/

    1080p https://www.hdvietnam.com/threads/h...atmos-truehd-7-1-x264-diep-vu-cam-tu.1721873/

    Thuyết minh https://www.hdvietnam.com/threads/h...y-dd-ex-5-1-x264-wiki-diep-vu-cam-tu.1723957/

    Remux https://www.hdvietnam.com/threads/h...d-ma-truehd-7-1-atmos-diep-vu-cam-tu.1722009/

    Remux 4K https://www.hdvietnam.com/threads/r...-hevc-dts-hd-ma-truehd-7-1-atmos-fgt.1723235/

    ISO
     

Chia sẻ trang này