[Fshare] [4K | Lồng Tiếng] Squid Game S01 ViEDUB 2160p NF WEB-DL DDP 5.1 Atmos H265 10bit - Ultra Vision

Thảo luận trong 'Phim bộ - Series' bắt đầu bởi Ultra-Vision®, 20/11/21.

  1. Ultra-Vision®

    Ultra-Vision® Well-Known Member

    Tham gia ngày:
    22/8/21
    Bài viết:
    97
    Đã được cảm ơn:
    861
    Giới tính:
    Nam
    Squid Game S01 ViEDUB 2160p NF WEB-DL HDR DDP5.1 Atmos H265 10bit - Ultra Vision
    Trò Chơi Con Mực
    [4K | HDR | Lồng Tiếng]
    [​IMG]
    Mã:

    	

    Complete name : Squid.Game.S01E01.Red.Light.Green.Light.ViEDUB.2160p.NF.WEB-DL.HDR.DDP5.1.Atmos.H.265.mkv Format : Matroska Format version : Version 4 File size : 6.76 GiB Duration : 59 min 42 s Overall bit rate : 16.2 Mb/s Cover : Yes Attachments : Cover.jpg Video ID : 1 Format : HEVC Format/Info : High Efficiency Video Coding Format profile : Main [email protected]@Main HDR format : Dolby Vision, Version 1.0, dvhe.08.06, BL+RPU, HDR10 compatible / SMPTE ST 2086, HDR10 compatible Codec ID : V_MPEGH/ISO/HEVC Duration : 58 min 17 s Bit rate : 15.2 Mb/s Width : 3 840 pixels Height : 2 160 pixels Display aspect ratio : 16:9 Frame rate mode : Constant Frame rate : 23.976 (24000/1001) FPS Color space : YUV Chroma subsampling : 4:2:0 (Type 2) Bit depth : 10 bits Bits/(Pixel*Frame) : 0.076 Stream size : 6.17 GiB (91%) Default : Yes Audio #1 ID : 2 Format : E-AC-3 Format/Info : Enhanced AC-3 Commercial name : Dolby Digital Plus Codec ID : A_EAC3 Duration : 59 min 42 s Bit rate mode : Constant Bit rate : 640 kb/s Channel(s) : 6 channels Channel layout : L R C LFE Ls Rs Sampling rate : 48.0 kHz Frame rate : 31.250 FPS (1536 SPF) Compression mode : Lossy Stream size : 273 MiB (4%) Title : Vietnamese Language : Vietnamese Service kind : Complete Main Default : Yes Forced : No Audio #2 ID : 3 Format : E-AC-3 JOC Format/Info : Enhanced AC-3 with Joint Object Coding Commercial name : Dolby Digital Plus with Dolby Atmos Codec ID : A_EAC3 Duration : 59 min 42 s Bit rate mode : Constant Bit rate : 768 kb/s Channel(s) : 6 channels Channel layout : L R C LFE Ls Rs Sampling rate : 48.0 kHz Frame rate : 31.250 FPS (1536 SPF) Compression mode : Lossy Stream size : 328 MiB (5%) Title : Korean Language : Korean Service kind : Complete Main Default : Yes Forced : No Complexity index : 16 Number of dynamic objects : 15 Bed channel count : 1 channel Bed channel configuration : LFE Text #1 ID : 4 Format : UTF-8 Codec ID : S_TEXT/UTF8 Codec ID/Info : UTF-8 Plain Text Duration : 57 min 52 s Bit rate : 47 b/s Count of elements : 634 Stream size : 20.1 KiB (0%) Language : English Default : No Forced : No Text #2 ID : 5 Format : UTF-8 Codec ID : S_TEXT/UTF8 Codec ID/Info : UTF-8 Plain Text Duration : 58 min 5 s Bit rate : 0 b/s Count of elements : 7 Stream size : 159 Bytes (0%) Title : Forced Language : Korean Default : Yes Forced : Yes Text #3 ID : 6 Format : UTF-8 Codec ID : S_TEXT/UTF8 Codec ID/Info : UTF-8 Plain Text Duration : 58 min 6 s Bit rate : 60 b/s Count of elements : 642 Stream size : 25.9 KiB (0%) Language : Vietnamese Default : No Forced : No

    [​IMG]
    [​IMG]
    [​IMG]

    Nhấn nút Cảm ơn (dưới chân bài) để thấy link!
     
  2. Đang tải...


  3. Ultra-Vision®

    Ultra-Vision® Well-Known Member

    Tham gia ngày:
    22/8/21
    Bài viết:
    97
    Đã được cảm ơn:
    861
    Giới tính:
    Nam
    Có DV khi mở với thiết bị thích ứng.
     

Chia sẻ trang này