[4K | TM7.1] The Lord of the Rings ViE Trilogy Extended 2160p UHD Blu-ray HEVC DDP7.1 x265-HQR

Thảo luận trong '4K' bắt đầu bởi ruandequan, 9/8/21.

  1. ruandequan

    ruandequan Well-Known Member

    Tham gia ngày:
    17/7/10
    Bài viết:
    581
    Đã được cảm ơn:
    15,977
    Giới tính:
    Nam
    [​IMG]
    The Lord of the Rings
    ViE Trilogy Extended 2160p Blu-ray HEVC DDP7.1 HDR x265-CtrlHD

    Chúa Tể Những Chiếc Nhẫn
    ★★★ 4k - PĐ Việt - Thuyết Minh 7.1 ★★★
    [​IMG]
    [​IMG]

    [​IMG]
    [​IMG]
    [​IMG]
    Mã:
    Complete name               : The Lord of the Rings-The Fellowship of the Ring 2001 ViE Extended UHD BluRay 2160p DDP 7.1 x265 HDR-HQR.mkv
    
    
    Format                      : Matroska
    Format version              : Version 4
    File size                   : 34.1 GiB
    Duration                    : 3 h 48 min
    Overall bit rate mode       : Variable
    Overall bit rate            : 21.4 Mb/s
    Video
    ID                          : 1
    Format                      : HEVC
    Format/Info                 : High Efficiency Video Coding
    Format profile              : Main [email protected]@Main
    HDR format                  : SMPTE ST 2086, HDR10 compatible
    Codec ID                    : V_MPEGH/ISO/HEVC
    Duration                    : 3 h 48 min
    Bit rate                    : 15.3 Mb/s
    Width                       : 3 840 pixels
    Height                      : 1 608 pixels
    Display aspect ratio        : 2.40:1
    Frame rate mode             : Constant
    Frame rate                  : 23.976 (24000/1001) FPS
    Color space                 : YUV
    Chroma subsampling          : 4:2:0 (Type 2)
    Bit depth                   : 10 bits
    Audio #1
    ID                          : 2
    Format                      : E-AC-3
    Format/Info                 : Enhanced AC-3
    Commercial name             : Dolby Digital Plus
    Codec ID                    : A_EAC3
    Duration                    : 3 h 48 min
    Bit rate mode               : Constant
    Bit rate                    : 1 024 kb/s
    Channel(s)                  : 8 channels
    Channel layout              : L R C LFE Ls Rs Lb Rb
    Sampling rate               : 48.0 kHz
    Frame rate                  : 31.250 FPS (1536 SPF)
    Compression mode            : Lossy
    Stream size                 : 1.63 GiB (5%)
    Language                    : English
    Service kind                : Complete Main
    Default                     : No
    Forced                      : No
    Audio #2
    ID                          : 3
    Format                      : DTS ES XLL
    Format/Info                 : Digital Theater Systems
    Commercial name             : DTS-HD Master Audio
    Codec ID                    : A_DTS
    Duration                    : 3 h 48 min
    Bit rate mode               : Variable
    Bit rate                    : 2 736 kb/s
    Channel(s)                  : 8 channels
    Channel layout              : C L R Ls Rs LFE Lb Rb
    Sampling rate               : 48.0 kHz
    Frame rate                  : 93.750 FPS (512 SPF)
    Bit depth                   : 16 bits
    Compression mode            : Lossless
    Stream size                 : 4.36 GiB (13%)
    Title                       : Thuyết Minh HQR REMUX
    Language                    : Vietnamese
    Default                     : Yes
    Forced                      : No
    Audio #3
    ID                          : 4
    Format                      : E-AC-3
    Format/Info                 : Enhanced AC-3
    Commercial name             : Dolby Digital Plus
    Format settings             : Dolby Surround EX
    Codec ID                    : A_EAC3
    Duration                    : 3 h 48 min
    Bit rate mode               : Constant
    Bit rate                    : 1 024 kb/s
    Channel(s)                  : 8 channels
    Channel layout              : L R C LFE Ls Rs Lb Rb
    Sampling rate               : 48.0 kHz
    Frame rate                  : 31.250 FPS (1536 SPF)
    Compression mode            : Lossy
    Stream size                 : 1.63 GiB (5%)
    Language                    : Vietnamese
    Service kind                : Complete Main
    Default                     : Yes
    Forced                      : No
    Audio #4
    ID                          : 5
    Format                      : E-AC-3
    Format/Info                 : Enhanced AC-3
    Commercial name             : Dolby Digital Plus
    Codec ID                    : A_EAC3
    Duration                    : 3 h 48 min
    Bit rate mode               : Constant
    Bit rate                    : 640 kb/s
    Channel(s)                  : 6 channels
    Channel layout              : L R C LFE Ls Rs
    Sampling rate               : 48.0 kHz
    Frame rate                  : 31.250 FPS (1536 SPF)
    Compression mode            : Lossy
    Stream size                 : 1.02 GiB (3%)
    Language                    : Vietnamese
    Service kind                : Complete Main
    Default                     : Yes
    Forced                      : No
    Audio #5
    ID                          : 6
    Format                      : AC-3
    Format/Info                 : Audio Coding 3
    Commercial name             : Dolby Digital
    Codec ID                    : A_AC3
    Duration                    : 3 h 48 min
    Bit rate mode               : Constant
    Bit rate                    : 640 kb/s
    Channel(s)                  : 6 channels
    Channel layout              : L R C LFE Ls Rs
    Sampling rate               : 48.0 kHz
    Frame rate                  : 31.250 FPS (1536 SPF)
    Compression mode            : Lossy
    Stream size                 : 1.02 GiB (3%)
    Language                    : Vietnamese
    Service kind                : Complete Main
    Default                     : Yes
    Forced                      : No
    Text #1
    ID                          : 7
    Format                      : PGS
    Muxing mode                 : zlib
    Codec ID                    : S_HDMV/PGS
    Codec ID/Info               : Picture based subtitle format used on BDs/HD-DVDs
    Duration                    : 3 h 19 min
    Bit rate                    : 23.2 kb/s
    Count of elements           : 3634
    Stream size                 : 33.2 MiB (0%)
    Title                       : English (SDH)
    Language                    : English
    Default                     : No
    Forced                      : No
    Text #2
    ID                          : 8
    Format                      : UTF-8
    Codec ID                    : S_TEXT/UTF8
    Codec ID/Info               : UTF-8 Plain Text
    Duration                    : 3 h 19 min
    Bit rate                    : 37 b/s
    Count of elements           : 1700
    Stream size                 : 54.5 KiB (0%)
    Language                    : English
    Default                     : Yes
    Forced                      : No
    Text #3
    ID                          : 9
    Format                      : UTF-8
    Codec ID                    : S_TEXT/UTF8
    Codec ID/Info               : UTF-8 Plain Text
    Duration                    : 3 h 19 min
    Bit rate                    : 51 b/s
    Count of elements           : 1740
    Stream size                 : 76.0 KiB (0%)
    Language                    : Vietnamese
    Default                     : No
    Forced                      : No
    Text #4
    ID                          : 10
    Format                      : UTF-8
    Codec ID                    : S_TEXT/UTF8
    Codec ID/Info               : UTF-8 Plain Text
    Duration                    : 3 h 19 min
    Bit rate                    : 53 b/s
    Count of elements           : 1779
    Stream size                 : 77.7 KiB (0%)
    Language                    : Vietnamese
    Default                     : Yes
    Forced                      : No
    
    [​IMG]
    [​IMG]
    [​IMG]
    [​IMG]
    [​IMG]

    [​IMG]
    Pass Fs: HQR-HDVN
     
  2. Đang tải...


  3. oldermonkey

    oldermonkey Active Member

    Tham gia ngày:
    14/9/13
    Bài viết:
    258
    Đã được cảm ơn:
    199
    Bác ơi bác làm bản The Lord of the Rings, The Hobbit Extended 1080p x265 (Thuyết minh) bản không HDR đi bác.
    Thank bác nhiều a!
     
    Chỉnh sửa cuối: 9/8/21
  4. ruandequan

    ruandequan Well-Known Member

    Tham gia ngày:
    17/7/10
    Bài viết:
    581
    Đã được cảm ơn:
    15,977
    Giới tính:
    Nam
    Để tiện cho ae sưu tầm, e sẽ up dần Au TM rời lên. Nếu có bản 1080p x265 e sẽ up:) Thanks
     
    oldermonkey cảm ơn bài này.
  5. LeeKunHee

    LeeKunHee Active Member

    Tham gia ngày:
    22/2/10
    Bài viết:
    246
    Đã được cảm ơn:
    196
    Giới tính:
    Nam
    Nghề nghiệp:
    DevOps
    Nơi ở:
    Vietnam
    Hi bạn ruandequan. Mong bạn fix sớm link phần 3 với nha. Thanks bạn nhiều.
     
  6. ruandequan

    ruandequan Well-Known Member

    Tham gia ngày:
    17/7/10
    Bài viết:
    581
    Đã được cảm ơn:
    15,977
    Giới tính:
    Nam
    Đã cập nhật full ạ!
     
  7. shiftdel

    shiftdel Active Member

    Tham gia ngày:
    29/3/10
    Bài viết:
    122
    Đã được cảm ơn:
    51
    bác có thể bỏ pass để tiện xem trên kodi ko?
     
  8. Ultra-Vision®

    Ultra-Vision® Well-Known Member

    Tham gia ngày:
    22/8/21
    Bài viết:
    96
    Đã được cảm ơn:
    796
    Giới tính:
    Nam
    Đọc trọn 2 lần, xem lại lần thứ 4.
     
  9. oldermonkey

    oldermonkey Active Member

    Tham gia ngày:
    14/9/13
    Bài viết:
    258
    Đã được cảm ơn:
    199

Chia sẻ trang này