[MULTI] Amateur Night (2016) 1080p WEB-DL DD5.1 H264-FGT

Thảo luận trong 'mHD, SD' bắt đầu bởi otik00, 14/8/16.

  1. otik00

    otik00 Well-Known Member

    Tham gia ngày:
    27/12/12
    Bài viết:
    20,787
    Đã được cảm ơn:
    222
    Amateur Night (2016) 1080p WEB-DL DD5.1 H264-FGT

    [​IMG]

    Mã:
    http://www.imdb.com/title/tt4265508/
    
    
    	

    Guy Carter is an award-winning graduate student of architecture. He's got a beautiful wife and a baby on the way. The problem? He doesn't have "his ducks in a row," which only fuels his doubts about being a good father. Guy has been trying to find work in his field for a year with no luck. At wit's end, his wife Anne finds him a job as a 'driver' on Craigslist. Guy shows up for the interview thinking he'll be delivering pizzas, but quickly realizes it's a job driving prostitutes. With money too scarce to turn down, he goes for it- which is where he meets Nikki, the tough-as-nails, unapologetic sex worker, and her two hilarious and foul-mouthed cohorts, Jaxi and Fallon. As reluctant driver and protector Guy is thrust into a world of rockin' women and feeble men. Over the course of one wild and sordid night, and several 'come-to-Jesus' moments, Guy proves to Nikki, and himself, that he does have what it takes to be the responsible father his family deserves.

    [mediainfo] Video ID : 1 Format : AVC Format/Info : Advanced Video Codec Format profile : [email protected] Format settings, CABAC : Yes Format settings, ReFrames : 5 frames Codec ID : V_MPEG4/ISO/AVC Duration : 1h 29mn Bit rate : 4 389 Kbps Width : 1 916 pixels Height : 796 pixels Display aspect ratio : 2.40:1 Frame rate mode : Constant Frame rate : 23.976 fps Color space : YUV Chroma subsampling : 4:2:0 Bit depth : 8 bits Scan type : Progressive Bits/(Pixel*Frame) : 0.120 Stream size : 2.74 GiB (90%) Title : Amateur.Night.2016.1080p.WEB-DL.DD5.1.H264-FGT Language : English Default : Yes Forced : No Color range : Limited Color primaries : BT.709 Transfer characteristics : BT.709 Matrix coefficients : BT.709 Audio ID : 2 Format : AC-3 Format/Info : Audio Coding 3 Mode extension : CM (complete main) Format settings, Endianness : Big Codec ID : A_AC3 Duration : 1h 29mn Bit rate mode : Constant Bit rate : 384 Kbps Channel(s) : 6 channels Channel positions : Front: L C R, Side: L R, LFE Sampling rate : 48.0 KHz Frame rate : 31.250 fps (1536 spf) Compression mode : Lossy Stream size : 246 MiB (8%) Title : Amateur.Night.2016.1080p.WEB-DL.DD5.1.H264-FGT Language : English Default : Yes Forced : No Text ID : 3 Format : UTF-8 Codec ID : S_TEXT/UTF8 Codec ID/Info : UTF-8 Plain Text Language : English Default : Yes Forced : No Menu 00:00:00.000 : en:Chapter 1 00:09:45.000 : en:Chapter 2 00:12:57.000 : en:Chapter 3 00:16:10.000 : en:Chapter 4 00:27:35.000 : en:Chapter 5 00:34:33.000 : en:Chapter 6 00:48:12.000 : en:Chapter 7 00:56:22.000 : en:Chapter 8 01:08:37.000 : en:Chapter 9 01:10:36.000 : en:Chapter 10 01:17:13.000 : en:Chapter 11 01:21:08.000 : en:Chapter 12 01:25:43.000 : en:Chapter 13 [/mediainfo]
    Mã:
    http://uploaded.net/file/3yz8dd8e/Amateur.1-FGT.part1.rar
    http://uploaded.net/file/yxci6rr1/Amateur.1-FGT.part2.rar
    http://uploaded.net/file/wupo4kmg/Amateur.1-FGT.part3.rar
    http://uploaded.net/file/uv5pfr71/Amateur.1-FGT.part4.rar
    http://rapidgator.net/file/5d77f205d4aeb788c914e8590f9d168b/Amateur.1-FGT.part1.rar.html
    http://rapidgator.net/file/a4c2a4b0f2f8f6b38d8faa332fd4ae16/Amateur.1-FGT.part2.rar.html
    http://rapidgator.net/file/add2400f4ffccf715a7680c3a898c1ad/Amateur.1-FGT.part3.rar.html
    http://rapidgator.net/file/bbcb3cd96af8e97c973a67e4ea36da18/Amateur.1-FGT.part4.rar.html
    https://www.bigfile.to/file/RaGYKtn4RVkQ/Amateur.1-FGT.part1.rar
    https://www.bigfile.to/file/hbNFppmPZZQq/Amateur.1-FGT.part2.rar
    https://www.bigfile.to/file/f3vbKnWV6vm2/Amateur.1-FGT.part3.rar
    https://www.bigfile.to/file/de4pKD5zxykt/Amateur.1-FGT.part4.rar
     
  2. Đang tải...

    Chủ đề tương tự
    1. LoriYagami
      Trả lời:
      0
      Đọc:
      42
    2. coldawes
      Trả lời:
      0
      Đọc:
      148
    3. coldawes
      Trả lời:
      0
      Đọc:
      156
    4. HD-Forums
      Trả lời:
      0
      Đọc:
      282
    5. CaptainTsubasa
      Trả lời:
      0
      Đọc:
      100

Chia sẻ trang này