[Fshare] As The Light Goes Out 2014 Vie 1080p WEB-DL x264 AC3-SmY -Đ ội Cứu Hỏa - Thuyết Minh DV: Tạ Đình Pho

Thảo luận trong 'Phim có audio Việt' bắt đầu bởi xemaydinh, 20/5/14.

  1. xemaydinh

    xemaydinh Tem

    Tham gia ngày:
    3/7/10
    Bài viết:
    31,582
    Đã được cảm ơn:
    141,813
    As The Light Goes Out 2014 Vie 1080p WEB-DL x264 AC3-SmY
    Đội Cứu Hỏa - Thuyết Minh DV: Tạ Đình Phong, Hồ Quân, Trần Vỹ Đình, Bạch Băng, An Dĩ Hiên...



    [​IMG]

    [​IMG]





    Mã:
    MEDIAINFO
    General
    Unique ID                                : 243862328081532958986679598098727172384 (0xB7762D0E1341D5CFB20A325E8E91F920)
    Complete name                            : As.The.Light.Goes.Out.2014.Vie.1080p.WEB-DL.x264.AC3-SmY.mkv
    Format                                   : Matroska
    Format version                           : Version 4 / Version 2
    File size                                : 2.67 GiB
    Duration                                 : 1h 55mn
    Overall bit rate                         : 3 301 Kbps
    Encoded date                             : UTC 2014-05-20 07:33:40
    Writing application                      : mkvmerge v6.8.0 ('Theme for Great Cities') 32bit built on Mar  2 2014 21:27:07
    Writing library                          : libebml v1.3.0 + libmatroska v1.4.1
    
    Video
    ID                                       : 1
    Format                                   : AVC
    Format/Info                              : Advanced Video Codec
    Format profile                           : [email protected]
    Format settings, CABAC                   : Yes
    Format settings, ReFrames                : 4 frames
    Codec ID                                 : V_MPEG4/ISO/AVC
    Duration                                 : 1h 55mn
    Bit rate                                 : 2 275 Kbps
    Width                                    : 1 904 pixels
    Height                                   : 792 pixels
    Display aspect ratio                     : 2.40:1
    Frame rate mode                          : Constant
    Frame rate                               : 25.000 fps
    Color space                              : YUV
    Chroma subsampling                       : 4:2:0
    Bit depth                                : 8 bits
    Scan type                                : Progressive
    Bits/(Pixel*Frame)                       : 0.060
    Stream size                              : 1.84 GiB (69%)
    Default                                  : Yes
    Forced                                   : No
    
    Audio #1
    ID                                       : 2
    Format                                   : AC-3
    Format/Info                              : Audio Coding 3
    Mode extension                           : CM (complete main)
    Format settings, Endianness              : Big
    Codec ID                                 : A_AC3
    Duration                                 : 1h 55mn
    Bit rate mode                            : Constant
    Bit rate                                 : 320 Kbps
    Channel(s)                               : 2 channels
    Channel positions                        : Front: L R
    Sampling rate                            : 48.0 KHz
    Bit depth                                : 16 bits
    Compression mode                         : Lossy
    Stream size                              : 265 MiB (10%)
    Title                                    : Tung Của
    Language                                 : Chinese
    Default                                  : No
    Forced                                   : No
    
    Audio #2
    ID                                       : 3
    Format                                   : AC-3
    Format/Info                              : Audio Coding 3
    Mode extension                           : CM (complete main)
    Format settings, Endianness              : Big
    Codec ID                                 : A_AC3
    Duration                                 : 1h 55mn
    Bit rate mode                            : Constant
    Bit rate                                 : 640 Kbps
    Channel(s)                               : 6 channels
    Channel positions                        : Front: L C R, Side: L R, LFE
    Sampling rate                            : 48.0 KHz
    Bit depth                                : 16 bits
    Compression mode                         : Lossy
    Stream size                              : 530 MiB (19%)
    Title                                    : Thuyet Minh @ Vietnam
    Language                                 : Vietnamese
    Default                                  : Yes
    Forced                                   : No


    [​IMG]


    [​IMG] [​IMG] [​IMG] [​IMG] [​IMG] [​IMG]

    [​IMG]


    [video=youtube;dV7DnpXRE6g]https://www.youtube.com/watch?v=dV7DnpXRE6g[/video]






    1 link Fshare ~2.66GB


    Nhấn nút Cảm ơn (dưới chân bài) để thấy link!






    Sub Việt




    [​IMG] [​IMG] [​IMG]





    Bluray remux

    1080p

    720p

    mhd


    D/S phim hay duoc chon loc
     
    CBong, mmyem, ketramtu and 2 others like this.
  2. Đang tải...


  3. tuanhung31

    tuanhung31 Active Member

    Tham gia ngày:
    19/2/12
    Bài viết:
    148
    Đã được cảm ơn:
    217
    Ðề: As The Light Goes Out 2014 Vie 1080p WEB-DL x264 AC3-SmY -Đ ội Cứu Hỏa - Thuyết Minh DV: Tạ Đình Phong, Hồ Quân, Trần Vỹ Đình, Bạch Băng, An Dĩ Hiên...

    làm gì có thuyết minh , lừa nhau à
     
  4. xemaydinh

    xemaydinh Tem

    Tham gia ngày:
    3/7/10
    Bài viết:
    31,582
    Đã được cảm ơn:
    141,813
    Ðề: As The Light Goes Out 2014 Vie 1080p WEB-DL x264 AC3-SmY -Đ ội Cứu Hỏa - Thuyết Minh DV: Tạ Đình Phong, Hồ Quân, Trần Vỹ Đình, Bạch Băng, An Dĩ Hiên...

    Có 2 audio mà, hãy chọn kênh audio khác để coi thuyết minh.

    P/s Hãy xem kĩ rùi hẵng phát biểu nhé
     
  5. S379

    S379 Uploader

    Tham gia ngày:
    1/9/13
    Bài viết:
    2,067
    Đã được cảm ơn:
    52,237
    Ðề: As The Light Goes Out 2014 Vie 1080p WEB-DL x264 AC3-SmY -Đ ội Cứu Hỏa - Thuyết Minh DV: Tạ Đình Phong, Hồ Quân, Trần Vỹ Đình, Bạch Băng, An Dĩ Hiên...

    Mình xem có tiếng Việt mà. Uploader sao lừa bạn j thế ???
     

Chia sẻ trang này