[Chiến tranh] Mangal Pandey 2005 Hindi 1080p Untouched WEB-DL x264 AAC Vietsub - Hon3y

Thảo luận trong 'Fshare.vn' bắt đầu bởi hatieupro7, 21/6/19.

  1. hatieupro7

    hatieupro7 Well-Known Member

    Tham gia ngày:
    26/9/10
    Bài viết:
    365
    Đã được cảm ơn:
    2,901
    Giới tính:
    Nam
    Nghề nghiệp:
    OSIN
    Nơi ở:
    Haiphong city
    MANGAL PANDEY (2005)
    NGƯỜI HÙNG MANGAL PANDEY
    ĐẤT NƯỚC NỔI DẬY
    IMDB: https://www.imdb.com/title/tt0346457/

    [​IMG]
    [​IMG]


    TRAILER


    SCREENSHOTS
    https://i.imgur.com/GY8b5rj.jpg
    [​IMG]

    PLOT:​

    Mã:
    Complete name               : H:\Mangal Pandey 2005 Hindi 1080p Untouched WEB-DL x264 AAC VSub - Hon3y.mkv
    Format                      : Matroska
    Format version              : Version 4 / Version 2
    File size                   : 5.95 GiB
    Duration                    : 2 h 25 min
    Overall bit rate            : 5 872 kb/s
    Movie name                  : Mangal Pandey /  2005-Hon3y
    Encoded date                : UTC 2019-06-20 06:02:31
    Writing application         : mkvmerge v9.8.0 ('Kuglblids') 64bit
    Writing library             : libebml v1.3.4 + libmatroska v1.4.5
    Video
    ID                          : 2
    Format                      : AVC
    Format/Info                 : Advanced Video Codec
    Format profile              : [email protected]
    Format settings, CABAC      : Yes
    Format settings, ReFrames   : 1 frame
    Format settings, GOP        : M=1, N=25
    Codec ID                    : V_MPEG4/ISO/AVC
    Duration                    : 2 h 25 min
    Bit rate mode               : Constant
    Bit rate                    : 6 000 kb/s
    Width                       : 1 920 pixels
    Height                      : 1 080 pixels
    Display aspect ratio        : 16:9
    Frame rate mode             : Constant
    Frame rate                  : 25.000 FPS
    Color space                 : YUV
    Chroma subsampling          : 4:2:0
    Bit depth                   : 8 bits
    Scan type                   : Progressive
    Bits/(Pixel*Frame)          : 0.116
    Stream size                 : 5.82 GiB (98%)
    Default                     : Yes
    Forced                      : No
    Audio
    ID                          : 3
    Format                      : AAC
    Format/Info                 : Advanced Audio Codec
    Format profile              : LC
    Codec ID                    : A_AAC
    Duration                    : 2 h 25 min
    Bit rate                    : 125 kb/s
    Channel(s)                  : 2 channels
    Channel positions           : Front: L R
    Sampling rate               : 48.0 kHz
    Frame rate                  : 46.875 FPS (1024 spf)
    Compression mode            : Lossy
    Stream size                 : 130 MiB (2%)
    Language                    : Hindi
    Default                     : Yes
    Forced                      : No
    Text
    ID                          : 1
    Format                      : ASS
    Codec ID                    : S_TEXT/ASS
    Codec ID/Info               : Advanced Sub Station Alpha
    Duration                    : 2 h 20 min
    Bit rate                    : 113 b/s
    Count of elements           : 1660
    Compression mode            : Lossless
    Stream size                 : 117 KiB (0%)
    Language                    : Vietnamese
    Default                     : Yes
    Forced                      : No
    


    LINK DOWNLOAD:
    Nhấn nút Cảm ơn (dưới chân bài) để thấy link!


    (Vietsub đã được mux sẵn trong phim)
    Link sub rời: https://subscene.com/subtitles/the-rising-ballad-of-mangal-pandey/vietnamese/2003340

    Chúc các bạn xem phim vui vẻ!
    #BMV.Team
    #Bollyw00ds
    #hatieupro

    Link thư mục phim Ấn do BMV.Team Việt hoá phụ đề
     
    Chỉnh sửa cuối: 1/9/20
  2. hatieupro7

    hatieupro7 Well-Known Member

    Tham gia ngày:
    26/9/10
    Bài viết:
    365
    Đã được cảm ơn:
    2,901
    Giới tính:
    Nam
    Nghề nghiệp:
    OSIN
    Nơi ở:
    Haiphong city
    Update link cho các bác ở nhà xem phim ngày 02/09 :D
    Trong máy e nhiều phim Ấn lắm, các bác thích xem phim gì cứ order, hôm nào rảnh em up cho :D
     
    bach95 and anhlinhp4 like this.

Chia sẻ trang này