[Chiến Tranh] The Kill Team 2019 1080p BluRay H264 DTS-HDMA 5.1-FGT~ BIỆT ĐỘI TIÊU DIỆT

Thảo luận trong '4share.vn' bắt đầu bởi quangnuyen, 18/2/20.

  1. quangnuyen

    quangnuyen Well-Known Member

    Tham gia ngày:
    21/6/12
    Bài viết:
    2,935
    Đã được cảm ơn:
    1,909
    The Kill Team 2019 1080p BluRay H264 DTS-HDMA 5.1-FGT~ BIỆT ĐỘI TIÊU DIỆT
    [​IMG]
    Mã:
    1 h 27 min
    Bit rate : 6 724 kb/s
    
    
    	

    Width : 1 920 pixels

    Height : 800 pixels Display aspect ratio : 2.40:1 Frame rate mode : Constant Frame rate : 23.976 (24000/1001) FPS Color space : YUV Chroma subsampling : 4:2:0 Bit depth : 10 bits Bits/(Pixel*Frame) : 0.183 Stream size : 4.11 GiB (63%) Language : English Default : Yes Forced : No Color range : Limited Color primaries : BT.709 Transfer characteristics : BT.709 Matrix coefficients : BT.709 Audio #1 ID : 2 Format : DTS XLL Format/Info : Digital Theater Systems Commercial name : DTS-HD Master Audio Codec ID : A_DTS Duration : 1 h 27 min Bit rate mode : Variable Bit rate : 3 746 kb/s Channel(s) : 6 channels Channel layout : C L R Ls Rs LFE Sampling rate : 48.0 kHz Frame rate : 93.750 FPS (512 SPF) Bit depth : 24 bits Compression mode : Lossless Stream size : 2.29 GiB (35%) Language : English Default : Yes Forced : No Audio #2 ID : 3 Format : AC-3 Format/Info : Audio Coding 3 Commercial name : Dolby Digital Codec ID : A_AC3 Duration : 1 h 27 min Bit rate mode : Constant Bit rate : 192 kb/s Channel(s) : 2 channels Channel layout : L R Sampling rate : 48.0 kHz Frame rate : 31.250 FPS (1536 SPF) Compression mode : Lossy Stream size : 120 MiB (2%) Language : English Service kind : Complete Main Default : No Forced : No Text #1 ID : 4 Format : PGS Muxing mode : zlib Codec ID : S_HDMV/PGS Codec ID/Info : Picture based subtitle format used on BDs/HD-DVDs Duration : 1 h 22 min Bit rate : 42.8 kb/s Count of elements : 1302 Stream size : 25.1 MiB (0%) Language : Vietnamese Default : Yes Forced : Yes Text #2 ID : 5 Format : PGS Muxing mode : zlib Codec ID : S_HDMV/PGS Codec ID/Info : Picture based subtitle format used on BDs/HD-DVDs Duration : 1 h 21 min Bit rate : 34.5 kb/s Count of elements : 1861 Stream size : 20.2 MiB (0%) Language : English Default : No Forced : No Text #3 ID : 6 Format : PGS Muxing mode : zlib Codec ID : S_HDMV/PGS Codec ID/Info : Picture based subtitle format used on BDs/HD-DVDs Duration : 1 h 22 min Bit rate : 28.1 kb/s Count of elements : 1725 Stream size : 16.5 MiB (0%) Language : Spanish Default : No Forced : No
    Khi Andrew Briggman, một người lính trẻ trong cuộc xâm lược Afghanistan của Hoa Kỳ chứng kiến những tân binh khác giết hại thường dân vô tội dưới sự chỉ đạo của một Trung sĩ tàn bạo, anh ta xem xét báo cáo họ lên cấp trên. Tuy nhiên, trung đội được vũ trang mạnh mẽ và ngày càng hung bạo trở nên nghi ngờ rằng ai đó trong hàng ngũ của họ đã kích hoạt họ, và Andrew bắt đầu lo sợ rằng mình sẽ là mục tiêu tiếp theo.


    1 LINK
    https://4share.download/sl/xn501063
    SUB
    https://subscene.com/subtitles/the-kill-team-2019
     
    nhonkhoa2001 and siromua like this.
  2. Đang tải...


  3. tantinh

    tantinh New Member

    Tham gia ngày:
    17/4/20
    Bài viết:
    13
    Đã được cảm ơn:
    1
    Giới tính:
    Nam
    thanks chủ top
     

Chia sẻ trang này