[Fshare] Đặc Cảnh Đồ Long "Tiger Cage" 1988 Bluray 1080p DD5.1 x264-USLT

Thảo luận trong 'Phim có audio Việt' bắt đầu bởi neoquiller, 1/3/21.

  1. neoquiller

    neoquiller Well-Known Member

    Tham gia ngày:
    3/9/09
    Bài viết:
    444
    Đã được cảm ơn:
    5,744
    Giới tính:
    Nam
    Đặc Cảnh Đồ Long
    Tiger Cage 1988
    ***Lồng Tiếng DD5.1***

    Việt Sub
    Diễn Viên:
    Chung Tử Đơn, Trịnh Du Linh, Lương Gia Nhân, Nhậm Đạt Hoa, Ngô Mạnh Đạt, Trương Học Hữu, Trương Mạn Ngọc, Ôn Bích Hà[​IMG][​IMG][​IMG][​IMG][​IMG][​IMG]

    Chi tiết file:

    Complete name: Tiger Cage 1988 Bluray 1080p DD5.1x264-USLT.mkv
    Format : Matroska
    Format version : Version 4
    File size : 8.26 GiB
    Duration : 1 h 33 min
    Overall bit rate : 12.7 Mb/s
    Video
    ID : 1
    Format : AVC
    Format/Info : Advanced Video Codec
    Format profile : [email protected]
    Format settings : CABAC / 4 Ref Frames
    Format settings, CABAC : Yes
    Format settings, Reference frames : 4 frames
    Codec ID : V_MPEG4/ISO/AVC
    Duration : 1 h 33 min
    Bit rate : 10.9 Mb/s
    Width : 1 920 pixels
    Height : 1 014 pixels
    Display aspect ratio : 1.893
    Frame rate mode : Constant
    Frame rate : 23.976 FPS
    Color space : YUV
    Chroma subsampling : 4:2:0
    Bit depth : 8 bits
    Scan type : Progressive
    Bits/(Pixel*Frame) : 0.234
    Stream size : 7.09 GiB (86%)
    Title : Remux Neoquiller
    Default : Yes
    Forced : No

    Audio #1
    ID : 2
    Format : AC-3
    Format/Info : Audio Coding 3
    Commercial name : Dolby Digital
    Codec ID : A_AC3
    Duration : 1 h 32 min
    Bit rate mode : Constant
    Bit rate : 512 kb/s
    Channel(s) : 6 channels
    Channel layout : L R C LFE Ls Rs
    Sampling rate : 48.0 kHz
    Frame rate : 31.250 FPS (1536 SPF)
    Compression mode : Lossy
    Stream size : 340 MiB (4%)
    Language : Vietnamese
    Service kind : Complete Main
    Default : Yes
    Forced : No

    Audio #2
    ID : 3
    Format : AC-3
    Format/Info : Audio Coding 3
    Commercial name : Dolby Digital
    Codec ID : A_AC3
    Duration : 1 h 32 min
    Bit rate mode : Constant
    Bit rate : 640 kb/s
    Channel(s) : 6 channels
    Channel layout : L R C LFE Ls Rs
    Sampling rate : 48.0 kHz
    Frame rate : 31.250 FPS (1536 SPF)
    Compression mode : Lossy
    Stream size : 425 MiB (5%)
    Title : Cantonese
    Service kind : Complete Main
    Default : No
    Forced : No

    Audio #3
    ID : 4
    Format : AC-3
    Format/Info : Audio Coding 3
    Commercial name : Dolby Digital
    Codec ID : A_AC3
    Duration : 1 h 32 min
    Bit rate mode : Constant
    Bit rate : 640 kb/s
    Channel(s) : 6 channels
    Channel layout : L R C LFE Ls Rs
    Sampling rate : 48.0 kHz
    Frame rate : 31.250 FPS (1536 SPF)
    Compression mode : Lossy
    Stream size : 425 MiB (5%)
    Title : Mandarin
    Service kind : Complete Main
    Default : No
    Forced : No

    Text
    ID : 5
    Format : UTF-8
    Codec ID : S_TEXT/UTF8
    Codec ID/Info : UTF-8 Plain Text
    Duration : 1 h 29 min
    Bit rate : 52 b/s
    Count of elements : 974
    Stream size : 34.8 KiB (0%)
    Language : Vietnamese
    Default : No
    Forced : No

    Pass: neoquiller
    Nhấn nút Cảm ơn (dưới chân bài) để thấy link!
     
    Chỉnh sửa cuối: 1/3/21
    AsA123, soi900, langtu230 and 60 others like this.
  2. HảiYến2k

    HảiYến2k Well-Known Member

    Tham gia ngày:
    5/7/19
    Bài viết:
    804
    Đã được cảm ơn:
    523
    Giới tính:
    Nữ
    Thank bạn toàn phim hay
     
    honghahuu and neoquiller like this.
  3. neoquiller

    neoquiller Well-Known Member

    Tham gia ngày:
    3/9/09
    Bài viết:
    444
    Đã được cảm ơn:
    5,744
    Giới tính:
    Nam
    Tình hình là mạng nhà load chậm quá, Sorry mọi người tốn xíu thời gian nha.
     
    HảiYến2k cảm ơn bài này.
  4. DazzyDuke

    DazzyDuke New Member

    Tham gia ngày:
    13/7/21
    Bài viết:
    1
    Đã được cảm ơn:
    0
    Thanks
     
  5. Ralpphilz

    Ralpphilz New Member

    Tham gia ngày:
    3/1/19
    Bài viết:
    27
    Đã được cảm ơn:
    23
    Giới tính:
    Nam
    link die rồi, bác reup lại giúp được không? CẢm ơn bác nhiều.
     

Chia sẻ trang này