[Fshare] Đại Náo Kim Các Tự 2001 (DVD9->rip, 30 tập, FFVN Lồng Tiếng)

Thảo luận trong 'mHD, SD' bắt đầu bởi tatam, 10/8/20.

  1. tatam

    tatam Well-Known Member

    Tham gia ngày:
    30/10/10
    Bài viết:
    4,108
    Đã được cảm ơn:
    25,967
    Giới tính:
    Nam
    [​IMG]

    Tên phim: Đại Náo Kim Các Tự, tên khác: Tiểu Tử Tinh Linh
    Diễn viên: Trương Vệ Kiện, Lý Băng Băng, Hà Mỹ Điền, Nhiếp Viễn, La Gia Anh
    Nhà sản xuất: SETTV
    Thể loại: Hài hước, Võ Thuật, Tình Cảm
    Quốc gia: Đài Loan

    Năm sản xuất: 2001

    Số tập : 30 tập

    Nội dung: Câu chuyện xảy ra ở đời nhà Minh,khi hoàng đế lâm bệnh nặng và đến thăm Gia Việt Tự. Tại đây ông gặp một tiểu hoà thượng vô cùng ngổ ngáo ham vui nhưng rất thông minh Bất Đổng. Không biết tại sao nhà vua lại thấy rất thích tiểu hòa thượng này. Trước khi ông rời khỏi chùa, ông nhờ Bất Đổng tìm chủ nhân của cây hoa trà Thập Bát Học Sĩ mà ông yêu thích, ông linh cảm, chỉ có Bất Đổng mới có thể giúp ông...
    Bất Đổng lên đường làm theo yêu cần của vua, vào làm việc tại Quan tự tại thư viện với lũ học trò vô cùng ngỗ nghịch, cầm đầu là Ưng HạcTự và Hạng Thiếu Học....
    Với phương pháp vô cùng không giống ai, Bất Đổng đã cảm hóa được lũ học trò tinh quái cùng với tình yêu của Hạc Tự.
    Lúc này, anh đối phó với âm mưu phản quốc của Ninh Vương chống lại Chu Chính vừa mới lên ngôi. Cùng với sự trợ giúp của Bất Đổng, giang sớn Đại Minh được thái bình...
    Cây muốn lặng mà gió chẳng muốn ngừng, Bất Đổng chính là con trai thứ hai của cố hoàng đế, tức là anh của Chu Chính, Bất Đổng sẽ làm sao???

    Mã:
    General:
    Complete name               : ... Dai Nao Kim Cac Tu 01 (1).mkv
    Format                      : Matroska
    
    
    Format version              : Version 4
    File size                   : 1.49 GiB
    Duration                    : 46 min 43 s
    Overall bit rate mode       : Variable
    Overall bit rate            : 4 560 kb/s
    Encoded date                : UTC 2020-08-09 03:45:43
    Writing application         : mkvmerge v30.1.0 ('Forever And More') 32-bit
    Writing library             : libebml v1.3.6 + libmatroska v1.4.9
    Video
    ID                          : 1
    Format                      : MPEG Video
    Format version              : Version 2
    Format profile              : [email protected]
    Format settings, BVOP       : No
    Format settings, Matrix     : Default
    Format settings, GOP        : N=12
    Codec ID                    : V_MPEG2
    Codec ID/Info               : MPEG 1 or 2 Video
    Duration                    : 46 min 42 s
    Bit rate mode               : Variable
    Bit rate                    : 4 052 kb/s
    Width                       : 720 pixels
    Height                      : 480 pixels
    Display aspect ratio        : 4:3
    Frame rate mode             : Constant
    Frame rate                  : 29.970 (30000/1001) FPS
    Standard                    : NTSC
    Color space                 : YUV
    Chroma subsampling          : 4:2:0
    Bit depth                   : 8 bits
    Scan type                   : Progressive
    Compression mode            : Lossy
    Bits/(Pixel*Frame)          : 0.391
    Time code of first frame    : 00:00:00:00
    Time code source            : Group of pictures header
    GOP, Open/Closed            : Open
    GOP, Open/Closed of first f : Closed
    Stream size                 : 1.32 GiB (89%)
    Default                     : Yes
    Forced                      : No
    Audio #1
    ID                          : 2
    Format                      : MPEG Audio
    Format version              : Version 1
    Format profile              : Layer 3
    Format settings             : Joint stereo / MS Stereo
    Codec ID                    : A_MPEG/L3
    Codec ID/Hint               : MP3
    Duration                    : 46 min 43 s
    Bit rate mode               : Variable
    Bit rate                    : 160 kb/s
    Channel(s)                  : 2 channels
    Sampling rate               : 48.0 kHz
    Frame rate                  : 41.667 FPS (1152 SPF)
    Compression mode            : Lossy
    Delay relative to video     : -10 ms
    Stream size                 : 1.83 MiB (0%)
    Language                    : Vietnamese
    Default                     : Yes
    Forced                      : No
    Audio #2
    ID                          : 3
    Format                      : AC-3
    Format/Info                 : Audio Coding 3
    Commercial name             : Dolby Digital
    Codec ID                    : A_AC3
    Duration                    : 46 min 43 s
    Bit rate mode               : Constant
    Bit rate                    : 384 kb/s
    Channel(s)                  : 6 channels
    Channel layout              : L R C LFE Ls Rs
    Sampling rate               : 48.0 kHz
    Frame rate                  : 31.250 FPS (1536 SPF)
    Compression mode            : Lossy
    Delay relative to video     : -10 ms
    Stream size                 : 126 MiB (8%)
    Language                    : Chinese
    Service kind                : Complete Main
    Default                     : No
    Forced                      : No

    Nguồn raw: Cantoon
    Nhấn nút Cảm ơn (dưới chân bài) để thấy link!
     
    Chỉnh sửa cuối: 20/10/21
    chawy, nhatnam055, louis88 and 123 others like this.
  2. banhmi500

    banhmi500 Member

    Tham gia ngày:
    22/7/12
    Bài viết:
    37
    Đã được cảm ơn:
    12
    cảm ơn bạn nhiều
     
    Da Đen cảm ơn bài này.
  3. thuytinhtim

    thuytinhtim Well-Known Member

    Tham gia ngày:
    25/7/11
    Bài viết:
    720
    Đã được cảm ơn:
    866
    Mấy tập phải giải nén à thím ? Có pass ko nhỉ ?
     
  4. thuytinhtim

    thuytinhtim Well-Known Member

    Tham gia ngày:
    25/7/11
    Bài viết:
    720
    Đã được cảm ơn:
    866
    Có mấy tập phải giải nén à thím ?
    Cần pass thì cho mình xin nhé, thanks .
     
  5. cantoon

    cantoon Well-Known Member

    Tham gia ngày:
    29/12/12
    Bài viết:
    806
    Đã được cảm ơn:
    10,397
    Giải nén không cần pass bạn.
    Mà bộ này USLT nhé bác @tatam :D:D
     
    thuytinhtim and tatam like this.
  6. pro wa

    pro wa Active Member

    Tham gia ngày:
    16/6/10
    Bài viết:
    552
    Đã được cảm ơn:
    159
    này uslt mà bạn
     
    Da Đen cảm ơn bài này.
  7. tatam

    tatam Well-Known Member

    Tham gia ngày:
    30/10/10
    Bài viết:
    4,108
    Đã được cảm ơn:
    25,967
    Giới tính:
    Nam
    Không có pass nha các bác.
     
    thuytinhtim cảm ơn bài này.
  8. ainngapple

    ainngapple New Member

    Tham gia ngày:
    18/12/20
    Bài viết:
    1
    Đã được cảm ơn:
    0
    Giới tính:
    Nam
    Xin chào ad @tatam ,
    Mình rất thích phim này từ nhỏ, và mình đã tìm phim này gần 10 năm nay phiên bản FFVN nhưng vẫn chưa tìm được.
    Trong phim lồng tiếng nhân vật chính là Bất Đổng thay vì Việt Hưu (bản này có rất nhiều trên mạng).

    Cho nên nếu ad trong lúc tìm phim có thể giành chút thời gian xem giúp mình có bản lồng tiếng FFVN cho mình xin với nhé. Mình biết là rất khó tìm phim cũ này trong thời điểm hiện tại. Nên nếu ad có thể giúp đỡ mình xin hậu tạ lớn ạ.
    SĐT: 0772662222
     
  9. hugehoanghiep

    hugehoanghiep Active Member

    Tham gia ngày:
    7/9/17
    Bài viết:
    119
    Đã được cảm ơn:
    55
    Giới tính:
    Nam
    reup giup minh voi ban
     
  10. Ronaldo87

    Ronaldo87 Well-Known Member

    Tham gia ngày:
    8/1/10
    Bài viết:
    270
    Đã được cảm ơn:
    1,372
    Giới tính:
    Nam
    Có ai còn bộ này reup giúp mình với
     
    vuongamto cảm ơn bài này.
  11. kim chien

    kim chien Member

    Tham gia ngày:
    4/7/14
    Bài viết:
    52
    Đã được cảm ơn:
    9
    Thank uploader
     
  12. tatam

    tatam Well-Known Member

    Tham gia ngày:
    30/10/10
    Bài viết:
    4,108
    Đã được cảm ơn:
    25,967
    Giới tính:
    Nam
    Đã reup.
     
  13. sonla_v

    sonla_v Member

    Tham gia ngày:
    10/8/09
    Bài viết:
    106
    Đã được cảm ơn:
    4
    lại die rồi bác ơi
     

Chia sẻ trang này