[Fshare] Deadwind 2018 S01-S02 1080p NF WEB-DL DD+ 5.1 x264 ~ Vụ Án Bí Ẩn (Vietsub)

Thảo luận trong 'Phim bộ - Series' bắt đầu bởi tremocoivo, 6/7/20.

  1. tremocoivo

    tremocoivo Well-Known Member

    Tham gia ngày:
    25/2/10
    Bài viết:
    1,385
    Đã được cảm ơn:
    46,544
    Giới tính:
    Nam

    Vụ Án Bí Ẩn (2018) - Trọn Bộ 2 Season
    Deadwind 2018 S01-S02 1080p NF WEB-DL DD+ 5.1 x264 {Sub Việt Mux Sẵn}

    [​IMG]
    https://www.imdb.com/title/tt6616260

    Nhân vật chính trong series điều tra tội phạm của Phần Lan này là Sofia Karppi, một thám tử ngoài 30 đang cố gắng vượt qua cái chết của chồng mình. Cô phát hiện ra cái xác của một người phụ nữ trẻ ở khu đất của một công trường, và vô tình tạo ra một chuỗi các sự kiện đe doạ sẽ phá huỷ cuộc sống của cô một lần nữa.


    Mã:
    General
    Complete name  : Deadwind.S01E01.1080p.NF.WEB-DL.DDP5.1.x264-NTb.mkv
    Format  : Matroska
    Format version  : Version 4
    File size  : 1.23 GiB
    Duration  : 44 min 44 s
    Overall bit rate mode  : Variable
    Overall bit rate  : 3 936 kb/s
    Encoded date  : UTC 2020-07-05 05:46:01
    Writing application  : mkvmerge v45.0.0 ('Heaven in Pennies') 64-bit
    
    
    Writing library  : libebml v1.3.10 + libmatroska v1.5.2
    Video
    ID  : 1
    Format  : AVC
    Format/Info  : Advanced Video Codec
    Format profile  : [email protected]
    Format settings  : CABAC / 3 Ref Frames
    Format settings, CABAC  : Yes
    Format settings, Reference  : 3 frames
    Codec ID  : V_MPEG4/ISO/AVC
    Duration  : 44 min 44 s
    Bit rate mode  : Variable
    Bit rate  : 3 320 kb/s
    Maximum bit rate  : 4 980 kb/s
    Width  : 1 920 pixels
    Height  : 1 080 pixels
    Display aspect ratio  : 16:9
    Frame rate mode  : Constant
    Frame rate  : 25.000 FPS
    Color space  : YUV
    Chroma subsampling  : 4:2:0
    Bit depth  : 8 bits
    Scan type  : Progressive
    Bits/(Pixel*Frame)  : 0.064
    Stream size  : 1.03 GiB (84%)
    Writing library  : x264 core 148 r2715 7e75228
    Encoding settings  : cabac=1 / ref=3 / deblock=1:0:0 / analyse=0x1:0x111 / me=umh / subme=10 / psy=1 / psy_rd=1.00:0.00 / mixed_ref=1 / me_range=24 / chroma_me=1 / trellis=2 / 8x8dct=0 / cqm=0 / deadzone=21,11 / fast_pskip=1 / chroma_qp_offset=-2 / threads=8 / lookahead_threads=1 / sliced_threads=0 / nr=0 / decimate=1 / interlaced=0 / bluray_compat=0 / stitchable=1 / constrained_intra=0 / bframes=2 / b_pyramid=0 / b_adapt=2 / b_bias=0 / direct=3 / weightb=1 / open_gop=0 / weightp=2 / keyint=50 / keyint_min=26 / scenecut=0 / intra_refresh=0 / rc_lookahead=50 / rc=2pass / mbtree=1 / bitrate=3320 / ratetol=1.0 / qcomp=0.50 / qpmin=6 / qpmax=51 / qpstep=4 / cplxblur=20.0 / qblur=0.5 / vbv_maxrate=4980 / vbv_bufsize=6640 / nal_hrd=vbr / filler=0 / ip_ratio=1.40 / aq=1:1.00
    Default  : Yes
    Forced  : No
    Audio
    ID  : 2
    Format  : E-AC-3
    Format/Info  : Enhanced AC-3
    Commercial name  : Dolby Digital Plus
    Codec ID  : A_EAC3
    Duration  : 44 min 44 s
    Bit rate mode  : Constant
    Bit rate  : 640 kb/s
    Channel(s)  : 6 channels
    Channel layout  : L R C LFE Ls Rs
    Sampling rate  : 48.0 kHz
    Frame rate  : 31.250 FPS (1536 SPF)
    Compression mode  : Lossy
    Stream size  : 205 MiB (16%)
    Title  : Finnish
    Language  : Finnish
    Service kind  : Complete Main
    Default  : Yes
    Forced  : No
    Text #1
    ID  : 3
    Format  : UTF-8
    Codec ID  : S_TEXT/UTF8
    Codec ID/Info  : UTF-8 Plain Text
    Duration  : 39 min 54 s
    Bit rate  : 60 b/s
    Count of elements  : 433
    Stream size  : 17.8 KiB (0%)
    Language  : English
    Default  : No
    Forced  : No
    Text #2
    ID  : 4
    Format  : UTF-8
    Codec ID  : S_TEXT/UTF8
    Codec ID/Info  : UTF-8 Plain Text
    Duration  : 41 min 24 s
    Bit rate  : 89 b/s
    Count of elements  : 425
    Stream size  : 27.2 KiB (0%)
    Language  : Arabic
    Default  : No
    Forced  : No
    Text #3
    ID  : 5
    Format  : UTF-8
    Codec ID  : S_TEXT/UTF8
    Codec ID/Info  : UTF-8 Plain Text
    Duration  : 39 min 54 s
    Bit rate  : 88 b/s
    Count of elements  : 433
    Stream size  : 26.0 KiB (0%)
    Language  : Bulgarian
    Default  : No
    Forced  : No
    Text #4
    ID  : 6
    Format  : UTF-8
    Codec ID  : S_TEXT/UTF8
    Codec ID/Info  : UTF-8 Plain Text
    Duration  : 41 min 24 s
    Bit rate  : 50 b/s
    Count of elements  : 432
    Stream size  : 15.2 KiB (0%)
    Language  : Danish
    Default  : No
    Forced  : No
    Text #5
    ID  : 7
    Format  : UTF-8
    Codec ID  : S_TEXT/UTF8
    Codec ID/Info  : UTF-8 Plain Text
    Duration  : 39 min 53 s
    Bit rate  : 86 b/s
    Count of elements  : 424
    Stream size  : 25.2 KiB (0%)
    Language  : Greek
    Default  : No
    Forced  : No
    Text #6
    ID  : 8
    Format  : UTF-8
    Codec ID  : S_TEXT/UTF8
    Codec ID/Info  : UTF-8 Plain Text
    Duration  : 41 min 24 s
    Bit rate  : 48 b/s
    Count of elements  : 431
    Stream size  : 14.7 KiB (0%)
    Language  : Spanish
    Default  : No
    Forced  : No
    Text #7
    ID  : 9
    Format  : UTF-8
    Codec ID  : S_TEXT/UTF8
    Codec ID/Info  : UTF-8 Plain Text
    Duration  : 41 min 24 s
    Bit rate  : 47 b/s
    Count of elements  : 423
    Stream size  : 14.3 KiB (0%)
    Title  : European
    Language  : Spanish
    Default  : No
    Forced  : No
    Text #8
    ID  : 10
    Format  : UTF-8
    Codec ID  : S_TEXT/UTF8
    Codec ID/Info  : UTF-8 Plain Text
    Duration  : 42 min 7 s
    Bit rate  : 64 b/s
    Count of elements  : 573
    Stream size  : 19.9 KiB (0%)
    Title  : SDH
    Language  : Finnish
    Default  : No
    Forced  : No
    Text #9
    ID  : 11
    Format  : UTF-8
    Codec ID  : S_TEXT/UTF8
    Codec ID/Info  : UTF-8 Plain Text
    Duration  : 41 min 23 s
    Bit rate  : 73 b/s
    Count of elements  : 433
    Stream size  : 22.4 KiB (0%)
    Language  : Hebrew
    Default  : No
    Forced  : No
    Text #10
    ID  : 12
    Format  : UTF-8
    Codec ID  : S_TEXT/UTF8
    Codec ID/Info  : UTF-8 Plain Text
    Duration  : 41 min 24 s
    Bit rate  : 46 b/s
    Count of elements  : 433
    Stream size  : 14.0 KiB (0%)
    Language  : Italian
    Default  : No
    Forced  : No
    Text #11
    ID  : 13
    Format  : UTF-8
    Codec ID  : S_TEXT/UTF8
    Codec ID/Info  : UTF-8 Plain Text
    Duration  : 41 min 23 s
    Bit rate  : 41 b/s
    Count of elements  : 458
    Stream size  : 12.6 KiB (0%)
    Language  : Japanese
    Default  : No
    Forced  : No
    Text #12
    ID  : 14
    Format  : UTF-8
    Codec ID  : S_TEXT/UTF8
    Codec ID/Info  : UTF-8 Plain Text
    Duration  : 39 min 54 s
    Bit rate  : 56 b/s
    Count of elements  : 435
    Stream size  : 16.5 KiB (0%)
    Language  : Korean
    Default  : No
    Forced  : No
    Text #13
    ID  : 15
    Format  : UTF-8
    Codec ID  : S_TEXT/UTF8
    Codec ID/Info  : UTF-8 Plain Text
    Duration  : 39 min 54 s
    Bit rate  : 50 b/s
    Count of elements  : 433
    Stream size  : 14.9 KiB (0%)
    Language  : Norwegian Bokmal
    Default  : No
    Forced  : No
    Text #14
    ID  : 16
    Format  : UTF-8
    Codec ID  : S_TEXT/UTF8
    Codec ID/Info  : UTF-8 Plain Text
    Duration  : 39 min 54 s
    Bit rate  : 45 b/s
    Count of elements  : 412
    Stream size  : 13.4 KiB (0%)
    Language  : Dutch
    Default  : No
    Forced  : No
    Text #15
    ID  : 17
    Format  : UTF-8
    Codec ID  : S_TEXT/UTF8
    Codec ID/Info  : UTF-8 Plain Text
    Duration  : 41 min 23 s
    Bit rate  : 45 b/s
    Count of elements  : 449
    Stream size  : 13.9 KiB (0%)
    Language  : Polish
    Default  : No
    Forced  : No
    Text #16
    ID  : 18
    Format  : UTF-8
    Codec ID  : S_TEXT/UTF8
    Codec ID/Info  : UTF-8 Plain Text
    Duration  : 41 min 23 s
    Bit rate  : 47 b/s
    Count of elements  : 464
    Stream size  : 14.3 KiB (0%)
    Language  : Portuguese
    Default  : No
    Forced  : No
    Text #17
    ID  : 19
    Format  : UTF-8
    Codec ID  : S_TEXT/UTF8
    Codec ID/Info  : UTF-8 Plain Text
    Duration  : 41 min 24 s
    Bit rate  : 47 b/s
    Count of elements  : 431
    Stream size  : 14.5 KiB (0%)
    Title  : Brazilian
    Language  : Portuguese
    Default  : No
    Forced  : No
    Text #18
    ID  : 20
    Format  : UTF-8
    Codec ID  : S_TEXT/UTF8
    Codec ID/Info  : UTF-8 Plain Text
    Duration  : 41 min 23 s
    Bit rate  : 50 b/s
    Count of elements  : 429
    Stream size  : 15.3 KiB (0%)
    Language  : Romanian
    Default  : No
    Forced  : No
    Text #19
    ID  : 21
    Format  : UTF-8
    Codec ID  : S_TEXT/UTF8
    Codec ID/Info  : UTF-8 Plain Text
    Duration  : 39 min 54 s
    Bit rate  : 47 b/s
    Count of elements  : 424
    Stream size  : 14.0 KiB (0%)
    Language  : Swedish
    Default  : No
    Forced  : No
    Text #20
    ID  : 22
    Format  : UTF-8
    Codec ID  : S_TEXT/UTF8
    Codec ID/Info  : UTF-8 Plain Text
    Duration  : 39 min 54 s
    Bit rate  : 126 b/s
    Count of elements  : 433
    Stream size  : 37.0 KiB (0%)
    Language  : Thai
    Default  : No
    Forced  : No
    Text #21
    ID  : 23
    Format  : UTF-8
    Codec ID  : S_TEXT/UTF8
    Codec ID/Info  : UTF-8 Plain Text
    Duration  : 42 min 12 s
    Bit rate  : 47 b/s
    Count of elements  : 434
    Stream size  : 14.6 KiB (0%)
    Language  : Turkish
    Default  : No
    Forced  : No
    Text #22
    ID  : 24
    Format  : UTF-8
    Codec ID  : S_TEXT/UTF8
    Codec ID/Info  : UTF-8 Plain Text
    Duration  : 41 min 23 s
    Bit rate  : 42 b/s
    Count of elements  : 434
    Stream size  : 13.0 KiB (0%)
    Title  : Simplified
    Language  : Chinese
    Default  : No
    Forced  : No
    Text #23
    ID  : 25
    Format  : UTF-8
    Codec ID  : S_TEXT/UTF8
    Codec ID/Info  : UTF-8 Plain Text
    Duration  : 39 min 54 s
    Bit rate  : 46 b/s
    Count of elements  : 432
    Stream size  : 13.5 KiB (0%)
    Title  : Traditional
    Language  : Chinese
    Default  : No
    Forced  : No
    Text #24
    ID  : 26
    Format  : UTF-8
    Codec ID  : S_TEXT/UTF8
    Codec ID/Info  : UTF-8 Plain Text
    Duration  : 41 min 26 s
    Bit rate  : 57 b/s
    Count of elements  : 438
    Stream size  : 17.6 KiB (0%)
    Title  : Vietnamese subtitles
    Language  : Vietnamese
    Default  : Yes
    Forced  : Yes
    
    SCREENSHOT
    [​IMG]
    DOWNLOAD
     
  2. ahipsa

    ahipsa Well-Known Member

    Tham gia ngày:
    24/2/19
    Bài viết:
    2,006
    Đã được cảm ơn:
    1,427
    Giới tính:
    Nam
    Nghề nghiệp:
    SINH VIÊN
    Nơi ở:
    BÌNH DƯƠNG
    Cảm ơn bác!!
     
  3. tranthanhtuan666666

    tranthanhtuan666666 Member

    Tham gia ngày:
    2/11/17
    Bài viết:
    67
    Đã được cảm ơn:
    19
    Giới tính:
    Nam
    cảm ơn bạn đã chia sẻ
     
  4. minhthong1981

    minhthong1981 Active Member

    Tham gia ngày:
    21/11/08
    Bài viết:
    546
    Đã được cảm ơn:
    47
    film này có bác nào xem chưa cho nhận xét với, xin cám ơn
     
  5. tommyhood

    tommyhood Active Member

    Tham gia ngày:
    28/2/15
    Bài viết:
    186
    Đã được cảm ơn:
    53
    S01E12 bị lỗi, ad reup giúp em nhé, thanks
     
  6. tremocoivo

    tremocoivo Well-Known Member

    Tham gia ngày:
    25/2/10
    Bài viết:
    1,385
    Đã được cảm ơn:
    46,544
    Giới tính:
    Nam
    Vẫn tải được bình thường mà nhỉ?? Chắc do server Fshare thôi bác.
     
  7. caumuc

    caumuc Active Member

    Tham gia ngày:
    10/1/12
    Bài viết:
    335
    Đã được cảm ơn:
    51
    Còn mấy tập nữa, up nốt đi Bác chủ ơi!
     
  8. tremocoivo

    tremocoivo Well-Known Member

    Tham gia ngày:
    25/2/10
    Bài viết:
    1,385
    Đã được cảm ơn:
    46,544
    Giới tính:
    Nam
    Ủa bộ này ra đủ rồi mà nhỉ?
     
  9. caumuc

    caumuc Active Member

    Tham gia ngày:
    10/1/12
    Bài viết:
    335
    Đã được cảm ơn:
    51
    Mình thấy trong chi tiết ghi 24 tập mà?
     
  10. tremocoivo

    tremocoivo Well-Known Member

    Tham gia ngày:
    25/2/10
    Bài viết:
    1,385
    Đã được cảm ơn:
    46,544
    Giới tính:
    Nam
    Season 01: 12 Tập
    Season 02: 08 Tập
    Thông tin này có trên IMDB mà.
     
  11. caumuc

    caumuc Active Member

    Tham gia ngày:
    10/1/12
    Bài viết:
    335
    Đã được cảm ơn:
    51
    Thanks Bác chủ :) !
     
  12. hutapa

    hutapa Active Member

    Tham gia ngày:
    14/1/10
    Bài viết:
    385
    Đã được cảm ơn:
    125
    Giới tính:
    Nam
    Nơi ở:
    VIỆT NAM
    Link die rồi bác ơi! Mong bác reup lại nhé.
    Cám ơn!
     
  13. thuytinhtim

    thuytinhtim Well-Known Member

    Tham gia ngày:
    25/7/11
    Bài viết:
    720
    Đã được cảm ơn:
    866
    hutapa cảm ơn bài này.

Chia sẻ trang này