[Fshare] 段银莹 (Duan YinYing) - 琴牵美人吟II (Mỹ Nhân Ngâm II ) 2011 [WAV/CUE/LOG] {Cổ tranh}

Thảo luận trong 'Nhạc không lời' bắt đầu bởi zhuynkylai, 3/12/11.

  1. zhuynkylai

    zhuynkylai Well-Known Member

    Tham gia ngày:
    18/8/10
    Bài viết:
    964
    Đã được cảm ơn:
    5,027
    Nghề nghiệp:
    Officer
    Nơi ở:
    VietNam

    [​IMG]
    [​IMG]


    [​IMG]
    Mã:

    	

    [FONT="Palatino Linotype"] Exact Audio Copy V1.0 beta 3 from 29. August 2011 EAC 抓取日志文件从17. 十一月 2011, 20:36 未知艺术家 / 未知标题 使用驱动器 :MATSHITADVD-RAM UJ8A2AS Adapter: 0 ID: 1 读取模式 : 可靠Secure 使用精确流 : 是 清空音频缓存 : 否 使用 C2 指示器 : 否 组合读写偏移校正: : 0 读取 Lead-In 和 Lead-Out : 否 用静音填充抓取中丢失偏移的采样 : 是 去除首尾静音块 : 否 在CRC 计算中使用了空样本 : 是 已用接口 : Win NT 及 2000 本地 Win32 接口 所用输出模式: : 内部 WAV 函数 样本格式 : 44.100 Hz; 16 Bit; 立体声 已抓取 CD 的 TOC 音轨 | 起始 | 长度 | 起始扇区 | 结束扇区 -------------------------------------------- 1 | 0:00.00 | 5:03.57 | 0 | 22781 2 | 5:03.57 | 5:00.21 | 22782 | 45302 3 | 10:04.03 | 5:04.57 | 45303 | 68159 4 | 15:08.60 | 5:38.02 | 68160 | 93511 5 | 20:46.62 | 3:49.18 | 93512 | 110704 6 | 24:36.05 | 4:40.33 | 110705 | 131737 7 | 29:16.38 | 4:41.66 | 131738 | 152878 8 | 33:58.29 | 4:33.54 | 152879 | 173407 9 | 38:32.08 | 4:42.51 | 173408 | 194608 10 | 43:14.59 | 4:16.69 | 194609 | 213877 11 | 47:31.53 | 4:04.69 | 213878 | 232246 12 | 51:36.47 | 5:31.07 | 232247 | 257078 范围状态及错误 已选择范围 文件名 D:\琴牵美人吟2-段银莹.wav 峰值电平 99.8 % 抓取速度 3.2 X 范围质量 100.0 % 复制 CRC 9BFE6AEE 复制成功 没有错误发生 状态报告结尾 [/FONT]

    [​IMG]
    Mã:
    [FONT="Palatino Linotype"]
    [SIZE="3"]01.女儿红
    02.一生爱你千百回
    03.传奇
    04.情深海更深(吻和泪)
    05.怨苍天变了心(恨在今天再相遇)
    06.娘心
    07.心有千千结
    08.飘雪(蝶儿蝶儿满天飞)
    09.沉浮
    10.似是故人来
    11.我心以许
    12.城里的月光(月光光) [/SIZE]
    [/FONT]
    
    [​IMG]
    Mã:
    [FONT="Palatino Linotype"]
    Fshare 1 link 
    [/FONT]
    [​IMG]
    Mã:
    [url=http://www.fshare.vn/file/TFYVWPNSPT]Duan_YingYin_-_My_Nhan_Ngam_2_(2011)_[WAV].rar - Fshare - Dịch vụ chia sẻ, lưu trữ dữ liệu miễn phí tốt nhất[/url]
    
    [​IMG]
    Mã:
    hdmovie.vn
    [​IMG]
    Mã:
    zhuynkylai


    Mã:
    http://www.hdvietnam.com/diendan/26-lossless-albums/231110-album-lossless-zhuynkylai-chinese-music-instrument-dj-dance-symphony-daily-update.html#post2071210
     
    hghuy, rongcanlc, gaycanada and 5 others like this.
  2. Đang tải...


Chia sẻ trang này