[Fshare] [ DVD-Remux ] Hoàn Châu Cách Cách Phần 02 1999 DVD-Remux 480p Dolby Digital-TOMMY

Thảo luận trong 'mHD, SD' bắt đầu bởi tommyking, 9/12/19.

  1. tommyking

    tommyking Well-Known Member

    Tham gia ngày:
    24/4/09
    Bài viết:
    887
    Đã được cảm ơn:
    13,892
    Giới tính:
    Nam
    Hoàn Châu Cách Cách Phần 02 1999 DVD-Remux 480p Dolby Digital-TOMMY

    [​IMG]

    [​IMG]

    Liễu Thanh, Liễu Hồng, hai người bạn giang hồ của Tiểu Yến Tử, vừa mở một tửu lầu tên là Hội Tân Lầu. Trong lễ khai trương, họ gặp một người Hồi tên là Mông Đan.

    Trong khi đó, Thái hậu, được mọi người gọi là Lão Phật Gia, về kinh sau một năm tu tịnh ở Ngũ Đài Sơn. Cùng về với bà là Tình Cách Cách Tình Nhi, con gái của một vị vương gia đã qua đời và là tâm phúc của Lão Phật Gia. Lão Phật Gia không lấy làm hài lòng khi biết tin Càn Long đã nhận hai cô gái nhân gian làm cách cách và đã đính hôn họ với Vĩnh Kỳ và Nhĩ Khang. Lão Phật Gia không hài lòng về thân thế của Tử Vy lại càng không ưa Tiểu Yến Tử.

    Cùng lúc đó, thủ lĩnh của bộ lạc người Hồi là A Ly Hoà trác đưa con gái là Công chúa Hàm Hương đến Bắc Kinh. Hàm Hương có một nét đặc biệt là người nàng toát ra một làn hương thơm tự nhiên mà không có gì có thể rửa sạch. A Ly Hoà trác dâng Hàm Hương lên làm quà cho Càn Long và ông lập tức phong nàng làm Dung Phi.


    Tiểu Yến Tử, Vĩnh Kỳ, Tử Vy và Nhĩ Khang dần dần biết được câu chuyện giữa Mông Đan và Hàm Hương. Họ là tình nhân nhưng A Ly Hoà trác luôn muốn dâng Hàm Hương cho Càn Long nên đã không đồng ý cho họ đến bên nhau. Mông Đan và Hàm Hương đã thử bỏ trốn tất cả bảy lần nhưng đều thất bại vì mùi hương của Hàm Hương có thế bị phát hiện. Nhóm bốn người Tiểu Yến Tử bắt đầu một kế hoạch giúp Hàm Hương và Mông Đan bỏ trốn lần nữa.

    Trong cung lại thêm chuyện phiền nhiễu khi Lão Phật Gia muốn Nhĩ Khang lấy Tình Nhi. Nhưng cuối cùng Tình Nhi nhận thấy tình cảm giữa Nhĩ Khang và Tử Vy quá mạnh mẽ và rút lui và xin Lão Phật Gia tác thành cho hai người.

    Một hôm, họ gặp một con người bí ẩn khác ở Hội Tân Lầu, tên là Tiêu Kiếm. Tên anh ta là chiếc tiêu và cây kiếm gia truyền mà anh luôn mang theo. Tiêu Kiếm giúp mọi người với kế hoạch giúp Mông Đan và Hàm Hương bỏ trốn. Khi Càn Long biết được nhóm Tiểu Yến Tử đã giúp Hàm Hương bỏ trốn, ông ra lệnh chém đầu Tử Vy và Tiểu Yến Tử. Vĩnh Kỳ, Nhĩ Khang, anh em họ Liễu và Tiêu Kiếm quyết định cướp xe tù và bỏ trốn khỏi hoàng cung, lưu lạc nơi chân trời góc bể.

    Trong khi họ chạy trốn, Càn Long bắt đầu cảm thấy nhớ các con và cho người đi tìm họ về. Trong cuộc trốn, Tiêu Kiếm tiết lộ sự thật: Tiểu Yến Tử là em gái của anh. Nhưng cha mẹ của Tiêu Kiếm và Tiểu Yến Tử đã bị hại chết và kẻ thủ giết cha của họ lại chính là Càn Long! Tiêu Kiếm cố tình không cho Tiểu Yến Tử biết chi tiết này vì tinh cảm giữa nàng và Vĩnh Kỳ.

    Rồi cuối cùng Càn Long cũng tìm được Tiểu Yến Tử, Vĩnh Kỳ, Tử Vy và Nhĩ Khang và đích thân đến đón họ về cung. Cảm động trước tình cảm của Càn Long, cả bốn người đồng ý về cung. Nhĩ Khang thuyết phục Tiêu Kiếm vứt bỏ mối thù giết cha và chấp nhận việc Tiểu Yến Tử làm con dâu Càn Long.

    Bộ phim kết thúc với lễ cưới của Vĩnh Kỳ - Tiểu Yến Tử và Nhĩ Khang - Tử Vy. Trong lễ cưới, Tình Nhi tình cờ gặp được Tiêu Kiếm...

    Mã:
     General
    Unique ID  : 293440830381485512944918556932522278599 (0xDCC2A5F1563247BB85D29DB322B67EC7)
    Complete name  : D:\1. Movies\1. Films Collection\1. Vicki Zhao Films\1. Hoan Chau Cach Cach\Hoan Chau Cach Cach P02\DVD-Remux\还珠格格2.1999.DVD-Remux.DVD01.mkv
    
    
    Format  : Matroska
    Format version  : Version 2
    File size  : 3.22 GiB
    Duration  : 1 h 20 min
    Overall bit rate mode  : Constant
    Overall bit rate  : 5 762 kb/s
    Encoded date  : UTC 2019-11-26 14:42:29
    Writing application  : MakeMKV v1.10.6 win(x64-release)
    Writing library  : libmakemkv v1.10.6 (1.3.3/1.4.4) win(x64-release)
    Video
    ID  : 1
    ID in the original source m : 224 (0xE0)
    Format  : MPEG Video
    Format version  : Version 2
    Format profile  : [email protected]
    Format settings  : CustomMatrix / BVOP
    Format settings, BVOP  : Yes
    Format settings, Matrix  : Custom
    Format settings, GOP  : M=3, N=15
    Format settings, picture st : Frame
    Codec ID  : V_MPEG2
    Codec ID/Info  : MPEG 1 or 2 Video
    Duration  : 1 h 20 min
    Bit rate mode  : Constant
    Bit rate  : 5 500 kb/s
    Width  : 720 pixels
    Height  : 480 pixels
    Display aspect ratio  : 4:3
    Frame rate mode  : Constant
    Frame rate  : 29.970 (30000/1001) FPS
    Standard  : NTSC
    Color space  : YUV
    Chroma subsampling  : 4:2:0
    Bit depth  : 8 bits
    Scan type  : Interlaced
    Scan order  : Top Field First
    Compression mode  : Lossy
    Bits/(Pixel*Frame)  : 0.531
    Time code of first frame  : 00:01:09;25
    Time code source  : Group of pictures header
    GOP, Open/Closed  : Closed
    Stream size  : 3.08 GiB (95%)
    Language  : English
    Default  : No
    Forced  : No
    Original source medium  : DVD-Video
    Audio
    ID  : 2
    ID in the original source m : 189 (0xBD)128 (0x80)
    Format  : AC-3
    Format/Info  : Audio Coding 3
    Commercial name  : Dolby Digital
    Codec ID  : A_AC3
    Duration  : 1 h 20 min
    Bit rate mode  : Constant
    Bit rate  : 256 kb/s
    Channel(s)  : 2 channels
    Channel layout  : L R
    Sampling rate  : 48.0 kHz
    Frame rate  : 31.250 FPS (1536 SPF)
    Compression mode  : Lossy
    Stream size  : 147 MiB (4%)
    Title  : Stereo
    Language  : Chinese
    Service kind  : Complete Main
    Default  : Yes
    Forced  : No
    Original source medium  : DVD-Video
    Menu
    00:00:00.066  : en:Chapter 01
    00:16:26.552  : en:Chapter 02
    00:32:17.502  : en:Chapter 03
    00:48:13.557  : en:Chapter 04
    01:03:56.499  : en:Chapter 05
    
    [​IMG]
    [​IMG]
    [​IMG]

    [​IMG]

    Nhấn nút Cảm ơn (dưới chân bài) để thấy link!
     
  2. Đang tải...


  3. tuongtuong_1994

    tuongtuong_1994 Member

    Tham gia ngày:
    28/11/15
    Bài viết:
    48
    Đã được cảm ơn:
    19
    Giới tính:
    Nam
    hardsub trung a bac
     
    ThanhQuy144 cảm ơn bài này.
  4. ngvutam

    ngvutam Well-Known Member

    Tham gia ngày:
    7/3/10
    Bài viết:
    364
    Đã được cảm ơn:
    581
    Giới tính:
    Nam
    Phần này gần như luôn dính hardsub Trung, chỉ có phần 1 là có bản no sub.
     
  5. Trần Quang Hoàng

    Trần Quang Hoàng New Member

    Tham gia ngày:
    27/6/20
    Bài viết:
    19
    Đã được cảm ơn:
    24
    Giới tính:
    Nam
    Bác có phần 1 tiếng trung bản nosub up lên được không ạ .
     
  6. Nguyễn Quảng Duy Long

    Nguyễn Quảng Duy Long Active Member

    Tham gia ngày:
    25/11/20
    Bài viết:
    206
    Đã được cảm ơn:
    134
    Giới tính:
    Nam

Chia sẻ trang này