Fast and Furious F9 The Fast Saga 2021 DC 1080p BluRay REMUX AVC DTS-HD MA TrueHD.7.1.Atmos-FGT

Thảo luận trong 'Bluray Remux' bắt đầu bởi xemaydinh, 2/9/21.

Tags
  1. xemaydinh

    xemaydinh Tem

    Tham gia ngày:
    3/7/10
    Bài viết:
    32,976
    Đã được cảm ơn:
    148,511
    Fast and Furious F9 The Fast Saga 2021 DC 1080p BluRay REMUX AVC DTS-HD MA TrueHD.7.1.Atmos-FGT
    Quá nhanh và quá nguy hiểm p9

    [​IMG]
    Huyền Thoại Tốc Độ là một bộ phim hành động sắp ra mắt của Mỹ do Justin Lin đạo diễn và Daniel Casey viết kịch bản. Phần tiếp theo của The Fate of the Furious 2017, đây sẽ là phần thứ chín của mạch truyện chính trong loạt phim The Fast Saga và bộ phim dài thứ mười được phát hành tổng thể. Bộ phim sẽ có sự tham gia của Vin Diesel, John Cena, Michelle Rodriguez, Tyrese Gibson, Chris "Ludacris" Bridges, Jordana Brewster, Nathalie Emmanuel, Sung Kang, Helen Mirren và Charlize Theron. Trong phim, Dominic Toretto (Diesel) và gia đình của anh phải đối mặt với một kẻ thù nguy hiểm mới tên Jakob (Cena), em trai của Dominic, cũng như mối đe dọa cũ của họ là Cipher (Theron)

    Video
    ID : 1

    ID in the original source medium : 4113 (0x1011)

    Format : AVC
    Format/Info : Advanced Video Codec
    Format profile : [email protected]
    Format settings : CABAC / 4 Ref Frames
    Format settings, CABAC : Yes
    Format settings, Reference frames : 4 frames
    Codec ID : V_MPEG4/ISO/AVC
    Duration : 2 h 29 min
    Bit rate mode : Variable
    Bit rate : 19.3 Mb/s
    Maximum bit rate : 31.0 Mb/s
    Width : 1 920 pixels
    Height : 1 080 pixels
    Display aspect ratio : 16:9
    Frame rate mode : Constant
    Frame rate : 23.976 (24000/1001) FPS
    Color space : YUV
    Chroma subsampling : 4:2:0
    Bit depth : 8 bits
    Scan type : Progressive
    Bits/(Pixel*Frame) : 0.388
    Stream size : 20.2 GiB (71%)
    Language : English
    Default : No
    Forced : No
    Original source medium : Blu-ray

    Audio #1
    ID : 2
    ID in the original source medium : 4352 (0x1100)
    Format : MLP FBA 16-ch
    Format/Info : Meridian Lossless Packing FBA with 16-channel presentation
    Commercial name : Dolby TrueHD with Dolby Atmos
    Codec ID : A_TRUEHD
    Duration : 2 h 29 min
    Bit rate mode : Variable
    Bit rate : 3 095 kb/s
    Maximum bit rate : 4 590 kb/s
    Channel(s) : 8 channels
    Channel layout : L R C LFE Ls Rs Lb Rb
    Sampling rate : 48.0 kHz
    Frame rate : 1 200.000 FPS (40 SPF)
    Bit depth : 24 bits
    Compression mode : Lossless
    Stream size : 3.24 GiB (11%)
    Title : TrueHD 7.1 Atmos
    Language : English
    Default : Yes
    Forced : No
    Original source medium : Blu-ray
    Number of dynamic objects : 11
    Bed channel count : 1 channel
    Bed channel configuration : LFE

    Audio #2
    ID : 3
    Format : DTS XLL
    Format/Info : Digital Theater Systems
    Commercial name : DTS-HD Master Audio
    Codec ID : A_DTS
    Duration : 2 h 29 min
    Bit rate mode : Variable
    Bit rate : 3 993 kb/s
    Channel(s) : 8 channels
    Channel layout : C L R LFE Lb Rb Lss Rss
    Sampling rate : 48.0 kHz
    Frame rate : 93.750 FPS (512 SPF)
    Bit depth : 24 bits
    Compression mode : Lossless
    Stream size : 4.18 GiB (15%)
    Title : DTS-HD MA 7.1
    Language : English
    Default : No
    Forced : No

    Audio #3
    ID : 4
    ID in the original source medium : 4352 (0x1100)
    Format : AC-3
    Format/Info : Audio Coding 3
    Commercial name : Dolby Digital
    Codec ID : A_AC3
    Duration : 2 h 29 min
    Bit rate mode : Constant
    Bit rate : 448 kb/s
    Channel(s) : 6 channels
    Channel layout : L R C LFE Ls Rs
    Sampling rate : 48.0 kHz
    Frame rate : 31.250 FPS (1536 SPF)
    Compression mode : Lossy
    Stream size : 480 MiB (2%)
    Title : DD 5.1
    Language : English
    Service kind : Complete Main
    Default : No
    Forced : No
    Original source medium : Blu-ray

    Audio #4
    ID : 5
    ID in the original source medium : 4355 (0x1103)
    Format : AC-3
    Format/Info : Audio Coding 3
    Commercial name : Dolby Digital
    Codec ID : A_AC3
    Duration : 2 h 29 min
    Bit rate mode : Constant
    Bit rate : 192 kb/s
    Channel(s) : 2 channels
    Channel layout : L R
    Sampling rate : 48.0 kHz
    Frame rate : 31.250 FPS (1536 SPF)
    Compression mode : Lossy
    Stream size : 206 MiB (1%)
    Title : DD 2.0
    Language : English
    Service kind : Complete Main
    Default : No
    Forced : No
    Original source medium : Blu-ray

    Text #1
    ID : 6
    Format : UTF-8
    Codec ID : S_TEXT/UTF8
    Codec ID/Info : UTF-8 Plain Text
    Duration : 2 h 22 min
    Bit rate : 48 b/s
    Count of elements : 1676
    Stream size : 50.7 KiB (0%)
    Title : SRT
    Language : English
    Default : Yes
    Forced : No

    Text #2
    ID : 7
    Format : UTF-8
    Codec ID : S_TEXT/UTF8
    Codec ID/Info : UTF-8 Plain Text
    Duration : 2 h 23 min
    Bit rate : 55 b/s
    Count of elements : 2039
    Stream size : 57.8 KiB (0%)
    Title : SDH
    Language : English
    Default : No
    Forced : No

    Text #3
    ID : 8
    ID in the original source medium : 4608 (0x1200)
    Format : PGS
    Muxing mode : zlib
    Codec ID : S_HDMV/PGS
    Codec ID/Info : Picture based subtitle format used on BDs/HD-DVDs
    Duration : 2 h 23 min
    Bit rate : 37.5 kb/s
    Count of elements : 4081
    Stream size : 38.4 MiB (0%)
    Language : English
    Default : No
    Forced : No
    Original source medium : Blu-ray

    Text #4
    ID : 9
    ID in the original source medium : 4610 (0x1202)
    Format : PGS
    Muxing mode : zlib
    Codec ID : S_HDMV/PGS
    Codec ID/Info : Picture based subtitle format used on BDs/HD-DVDs
    Duration : 2 h 20 min
    Bit rate : 66.5 kb/s
    Count of elements : 4567
    Stream size : 67.0 MiB (0%)
    Title : SDH
    Language : English
    Default : No
    Forced : No
    Original source medium : Blu-ray

    Menu
    00:00:00.000 : Chapter 01
    00:04:47.578 : Chapter 02
    00:12:27.913 : Chapter 03
    00:21:53.270 : Chapter 04
    00:26:43.268 : Chapter 05
    00:31:43.568 : Chapter 06
    00:35:36.717 : Chapter 07
    00:45:33.772 : Chapter 08
    00:53:42.761 : Chapter 09
    01:01:12.669 : Chapter 10
    01:05:24.295 : Chapter 11
    01:13:55.472 : Chapter 12
    01:25:26.121 : Chapter 13
    01:35:27.805 : Chapter 14
    01:41:34.129 : Chapter 15
    01:47:08.380 : Chapter 16
    01:57:42.472 : Chapter 17
    02:08:02.091 : Chapter 18
    02:12:25.479 : Chapter 19
    02:17:20.941 : Chapter 20


    720p https://www.hdvietnam.com/threads/h...y-x264-qua-nhanh-va-qua-nguy-hiem-p9.1706700/

    1080p https://www.hdvietnam.com/threads/h...y-x264-qua-nhanh-va-qua-nguy-hiem-p9.1706735/

    Remux https://www.hdvietnam.com/threads/f...a-truehd-7-1-atmos-fgt.1707326/#post-10641625

    Remux 4K https://www.hdvietnam.com/threads/f...ay-remux-hevc-truehd-7-1-atmos-nogrp.1708056/

    thuyết minh https://www.hdvietnam.com/threads/f...-cut-vie-mfhd-bluray-dd5-1-x264-c0ke.1707758/
     
    Chỉnh sửa cuối: 4/9/21
  2. xemaydinh

    xemaydinh Tem

    Tham gia ngày:
    3/7/10
    Bài viết:
    32,976
    Đã được cảm ơn:
    148,511

Chia sẻ trang này