[Fshare] Fast and Furious F9 The Fast Saga 2021 DC 2160p BluRay REMUX HEVC TrueHD 7.1.Atmos-NOGRP

Thảo luận trong 'Bluray Remux 4K' bắt đầu bởi xemaydinh, 4/9/21.

  1. xemaydinh

    xemaydinh Tem

    Tham gia ngày:
    3/7/10
    Bài viết:
    32,849
    Đã được cảm ơn:
    146,922
    Fast and Furious F9 The Fast Saga 2021 DC 2160p BluRay REMUX HEVC TrueHD 7.1.Atmos-NOGRP
    Quá nhanh và quá nguy hiểm p9

    [​IMG]
    Huyền Thoại Tốc Độ là một bộ phim hành động sắp ra mắt của Mỹ do Justin Lin đạo diễn và Daniel Casey viết kịch bản. Phần tiếp theo của The Fate of the Furious 2017, đây sẽ là phần thứ chín của mạch truyện chính trong loạt phim The Fast Saga và bộ phim dài thứ mười được phát hành tổng thể. Bộ phim sẽ có sự tham gia của Vin Diesel, John Cena, Michelle Rodriguez, Tyrese Gibson, Chris "Ludacris" Bridges, Jordana Brewster, Nathalie Emmanuel, Sung Kang, Helen Mirren và Charlize Theron. Trong phim, Dominic Toretto (Diesel) và gia đình của anh phải đối mặt với một kẻ thù nguy hiểm mới tên Jakob (Cena), em trai của Dominic, cũng như mối đe dọa cũ của họ là Cipher (Theron)

    Video
    ID : 1

    ID in the original source medium : 4113 (0x1011)

    Format : HEVC
    Format/Info : High Efficiency Video Coding
    Format profile : Main [email protected]@High
    HDR format : Dolby Vision, Version 1.0, dvhe.07.06, BL+EL+RPU, Blu-ray compatible / SMPTE ST 2094 App 4, Version 1, HDR10+ Profile B compatible
    Codec ID : V_MPEGH/ISO/HEVC
    Duration : 2 h 29 min
    Bit rate : 46.6 Mb/s
    Width : 3 840 pixels
    Height : 2 160 pixels
    Display aspect ratio : 16:9
    Frame rate mode : Constant
    Frame rate : 23.976 (24000/1001) FPS
    Color space : YUV
    Chroma subsampling : 4:2:0 (Type 2)
    Bit depth : 10 bits
    Bits/(Pixel*Frame) : 0.235
    Stream size : 48.8 GiB (92%)
    Language : English
    Default : No
    Forced : No
    Color range : Limited
    Color primaries : BT.2020
    Transfer characteristics : PQ
    Matrix coefficients : BT.2020 non-constant
    Mastering display color primaries : Display P3
    Mastering display luminance : min: 0.0001 cd/m2, max: 1000 cd/m2
    Maximum Content Light Level : 1000 cd/m2
    Maximum Frame-Average Light Level : 696 cd/m2
    Original source medium : Blu-ray

    Audio #1
    ID : 2
    ID in the original source medium : 4352 (0x1100)
    Format : MLP FBA 16-ch
    Format/Info : Meridian Lossless Packing FBA with 16-channel presentation
    Commercial name : Dolby TrueHD with Dolby Atmos
    Codec ID : A_TRUEHD
    Duration : 2 h 29 min
    Bit rate mode : Variable
    Bit rate : 3 095 kb/s
    Maximum bit rate : 4 590 kb/s
    Channel(s) : 8 channels
    Channel layout : L R C LFE Ls Rs Lb Rb
    Sampling rate : 48.0 kHz
    Frame rate : 1 200.000 FPS (40 SPF)
    Bit depth : 24 bits
    Compression mode : Lossless
    Stream size : 3.24 GiB (6%)
    Title : Surround 7.1
    Language : English
    Default : Yes
    Forced : No
    Original source medium : Blu-ray
    Number of dynamic objects : 11
    Bed channel count : 1 channel
    Bed channel configuration : LFE

    Audio #2
    ID : 3
    ID in the original source medium : 4352 (0x1100)
    Format : AC-3
    Format/Info : Audio Coding 3
    Commercial name : Dolby Digital
    Codec ID : A_AC3
    Duration : 2 h 29 min
    Bit rate mode : Constant
    Bit rate : 448 kb/s
    Channel(s) : 6 channels
    Channel layout : L R C LFE Ls Rs
    Sampling rate : 48.0 kHz
    Frame rate : 31.250 FPS (1536 SPF)
    Compression mode : Lossy
    Stream size : 480 MiB (1%)
    Title : Surround 5.1
    Language : English
    Service kind : Complete Main
    Default : No
    Forced : No
    Original source medium : Blu-ray

    Audio #3
    ID : 4
    ID in the original source medium : 4354 (0x1102)
    Format : AC-3
    Format/Info : Audio Coding 3
    Commercial name : Dolby Digital
    Codec ID : A_AC3
    Duration : 2 h 29 min
    Bit rate mode : Constant
    Bit rate : 192 kb/s
    Channel(s) : 2 channels
    Channel layout : L R
    Sampling rate : 48.0 kHz
    Frame rate : 31.250 FPS (1536 SPF)
    Compression mode : Lossy
    Stream size : 206 MiB (0%)
    Title : Stereo
    Language : English
    Service kind : Complete Main
    Default : No
    Forced : No
    Original source medium : Blu-ray

    Text #1
    ID : 5
    ID in the original source medium : 4768 (0x12A0)
    Format : PGS
    Codec ID : S_HDMV/PGS
    Codec ID/Info : Picture based subtitle format used on BDs/HD-DVDs
    Duration : 2 h 23 min
    Bit rate : 36.8 kb/s
    Count of elements : 4079
    Stream size : 37.6 MiB (0%)
    Language : English
    Default : No
    Forced : No
    Original source medium : Blu-ray

    Text #2
    ID : 7
    ID in the original source medium : 4770 (0x12A2)
    Format : PGS
    Codec ID : S_HDMV/PGS
    Codec ID/Info : Picture based subtitle format used on BDs/HD-DVDs
    Duration : 2 h 20 min
    Bit rate : 65.0 kb/s
    Count of elements : 4556
    Stream size : 65.5 MiB (0%)
    Language : English
    Default : No
    Forced : No
    Original source medium : Blu-ray

    Menu
    00:00:00.000 : en:Chapter 01
    00:04:47.578 : en:Chapter 02
    00:12:27.705 : en:Chapter 03
    00:21:53.270 : en:Chapter 04
    00:26:43.268 : en:Chapter 05
    00:31:43.234 : en:Chapter 06
    00:35:36.425 : en:Chapter 07
    00:45:33.689 : en:Chapter 08
    00:53:42.761 : en:Chapter 09
    01:01:12.418 : en:Chapter 10
    01:05:24.295 : en:Chapter 11
    01:13:55.472 : en:Chapter 12
    01:25:26.121 : en:Chapter 13
    01:35:27.805 : en:Chapter 14
    01:41:34.129 : en:Chapter 15
    01:47:08.380 : en:Chapter 16
    01:57:42.138 : en:Chapter 17
    02:08:02.091 : en:Chapter 18
    02:12:25.479 : en:Chapter 19
    02:17:20.941 : en:Chapter 20​


    4Share


    http://4share.vn/f/380e0a0e010e0a0a





    720p https://www.hdvietnam.com/threads/h...y-x264-qua-nhanh-va-qua-nguy-hiem-p9.1706700/

    1080p https://www.hdvietnam.com/threads/h...y-x264-qua-nhanh-va-qua-nguy-hiem-p9.1706735/

    Remux https://www.hdvietnam.com/threads/f...a-truehd-7-1-atmos-fgt.1707326/#post-10641625

    thuyết minh https://www.hdvietnam.com/threads/f...-cut-vie-mfhd-bluray-dd5-1-x264-c0ke.1707758/
     
    hoang864, Phan Luc Hoa and vinhcmb like this.
  2. Đang tải...


  3. vinhcmb

    vinhcmb Well-Known Member

    Tham gia ngày:
    3/9/10
    Bài viết:
    7,748
    Đã được cảm ơn:
    16,567
    Giới tính:
    Nam
    Nghề nghiệp:
    Cửu vạn
    Nơi ở:
    Sài Gòn
    Bác xe máy giờ quay lại úp phim à?
     
    xemaydinh cảm ơn bài này.
  4. xemaydinh

    xemaydinh Tem

    Tham gia ngày:
    3/7/10
    Bài viết:
    32,849
    Đã được cảm ơn:
    146,922
    đang covit rảnh rỗi úp bác ạ :D
     

Chia sẻ trang này