[Fshare] Full Match một số trận bóng hay mà mình có

Thảo luận trong 'Kênh thể thao HD' bắt đầu bởi vipbkgz, 28/1/15.

  1. hoa22065

    hoa22065 Member

    Tham gia ngày:
    10/4/17
    Bài viết:
    47
    Đã được cảm ơn:
    0
    Giới tính:
    Nam
    Cám ơn bác rất nhiều, có nhiều trận tìm mãi không có bản đẹp!
     
  2. vipbkgz

    vipbkgz Well-Known Member

    Tham gia ngày:
    31/12/13
    Bài viết:
    800
    Đã được cảm ơn:
    650
    Giới tính:
    Nam
    Nơi ở:
    Hà Nội
  3. thekop

    thekop Active Member

    Tham gia ngày:
    4/1/10
    Bài viết:
    216
    Đã được cảm ơn:
    48
    Giới tính:
    Nam
    Nơi ở:
    Tp, hcm
    Cảm ơn vipbkgz nhé! xem trực tiếp rồi nhưng vẫn muốn lưu lại
     
  4. cuonghuy0001

    cuonghuy0001 Active Member

    Tham gia ngày:
    10/12/11
    Bài viết:
    404
    Đã được cảm ơn:
    27
    Admin làm thêm mấy trận siêu kinh điển của Barcelona với Real Madrid nha.cảm ơn nhiều
     
    Last edited by a moderator: 28/7/17
  5. thekop

    thekop Active Member

    Tham gia ngày:
    4/1/10
    Bài viết:
    216
    Đã được cảm ơn:
    48
    Giới tính:
    Nam
    Nơi ở:
    Tp, hcm
    @vipbkgz có Siêu Cup châu Âu Real-MU chưa bạn ơi hehe
     
  6. thangba81

    thangba81 Well-Known Member

    Tham gia ngày:
    21/3/12
    Bài viết:
    2,278
    Đã được cảm ơn:
    36
    Bác có trận siêu kinh tởm đêm qua cho em xin!
     
  7. kennyminh

    kennyminh Well-Known Member

    Tham gia ngày:
    16/3/09
    Bài viết:
    3,461
    Đã được cảm ơn:
    34,164
    Giới tính:
    Nam
    Nơi ở:
    Vietnam
    [​IMG]

    Mã:
    General
    ID                             : 8900 (0x22C4)
    Complete name                  : D:\SNG\20171223 LaLiga R17 Real Madrid vs Barcelona SNG 1080i.ts
    Format                         : MPEG-TS
    File size                      : 25.5 GiB
    Start time                     : UTC 2017-12-23 09:54:01
    End time                       : UTC 2017-12-23 14:19:12
    Overall bit rate mode          : Variable
    Network name                   : AsiaSat
    
    Video
    ID                             : 3851 (0xF0B)
    Menu ID                        : 43 (0x2B)
    Format                         : AVC
    Format/Info                    : Advanced Video Codec
    Format profile                 : High 4:2:[email protected]
    Format settings, CABAC         : Yes
    Format settings, ReFrames      : 3 frames
    Format settings, GOP           : M=3, N=24
    Codec ID                       : 27
    Bit rate mode                  : Constant
    Bit rate                       : 10.1 Mbps
    Width                          : 1 920 pixels
    Height                         : 1 080 pixels
    Display aspect ratio           : 16:9
    Frame rate                     : 25.000 fps
    Color space                    : YUV
    Chroma subsampling             : 4:2:2
    Bit depth                      : 8 bits
    Scan type                      : Interlaced
    Scan type, store method        : Separated fields
    Scan order                     : Top Field First
    Bits/(Pixel*Frame)             : 0.195
    Color range                    : Limited
    Color primaries                : BT.709
    Transfer characteristics       : BT.709
    Matrix coefficients            : BT.709
    
    Audio #1
    ID                             : 3852 (0xF0C)
    Menu ID                        : 43 (0x2B)
    Format                         : MPEG Audio
    Format version                 : Version 1
    Format profile                 : Layer 2
    Codec ID                       : 3
    Bit rate mode                  : Constant
    Bit rate                       : 256 Kbps
    Channel(s)                     : 2 channels
    Sampling rate                  : 48.0 KHz
    Compression mode               : Lossy
    Delay relative to video        : -168ms
    
    Audio #2
    ID                             : 3853 (0xF0D)
    Menu ID                        : 43 (0x2B)
    Format                         : MPEG Audio
    Format version                 : Version 1
    Format profile                 : Layer 2
    Codec ID                       : 3
    Bit rate mode                  : Constant
    Bit rate                       : 256 Kbps
    Channel(s)                     : 2 channels
    Sampling rate                  : 48.0 KHz
    Compression mode               : Lossy
    Delay relative to video        : -168ms
    
    Audio #3
    ID                             : 3854 (0xF0E)
    Menu ID                        : 43 (0x2B)
    Format                         : MPEG Audio
    Format version                 : Version 1
    Format profile                 : Layer 2
    Codec ID                       : 3
    Bit rate mode                  : Constant
    Bit rate                       : 256 Kbps
    Channel(s)                     : 2 channels
    Sampling rate                  : 48.0 KHz
    Compression mode               : Lossy
    Delay relative to video        : -168ms
    
    Audio #4
    ID                             : 3855 (0xF0F)-1
    Menu ID                        : 43 (0x2B)
    Format                         : Dolby E
    Mode                           : 20
    Format settings, Endianness    : Little
    Muxing mode                    : SMPTE ST 302 / SMPTE ST 337
    Codec ID                       : 6
    Bit rate mode                  : Constant
    Encoded bit rate               : 2 304 Kbps
    Channel(s)                     : 6 channels
    Channel positions              : Front: L C R, Side: L R, LFE
    Sampling rate                  : 48.0 KHz
    Frame rate                     : 25.000 fps (1920 spf)
    Bit depth                      : 20 bits
    Delay relative to video        : -136ms
    
    Audio #5
    ID                             : 3855 (0xF0F)-2
    Menu ID                        : 43 (0x2B)
    Format                         : Dolby E
    Mode                           : 20
    Format settings, Endianness    : Little
    Muxing mode                    : SMPTE ST 302 / SMPTE ST 337
    Bit rate mode                  : Constant
    Encoded bit rate               : 0 bps
    Channel(s)                     : 2 channels
    Channel positions              : Front: L R
    Sampling rate                  : 48.0 KHz
    Frame rate                     : 25.000 fps (1920 spf)
    Bit depth                      : 20 bits
    Delay relative to video        : -136ms
    Download (PW: rbcf)​
     
    thangba81 cảm ơn bài này.
  8. thangba81

    thangba81 Well-Known Member

    Tham gia ngày:
    21/3/12
    Bài viết:
    2,278
    Đã được cảm ơn:
    36
    Bạn ơi có link nào dễ dl hơn ko. Link kia khoai quá
     
  9. kennyminh

    kennyminh Well-Known Member

    Tham gia ngày:
    16/3/09
    Bài viết:
    3,461
    Đã được cảm ơn:
    34,164
    Giới tính:
    Nam
    Nơi ở:
    Vietnam
    [​IMG]
    [​IMG]
    Mã:
    General
    ID                             : 8900 (0x22C4)
    Complete name                  : E:\SNG\20180120 AFC U23 Quarter-finals IRAQ vs VIETNAM SNG 1080i.ts
    Format                         : MPEG-TS
    File size                      : 21.0 GiB
    Duration                       : 3h 13mn
    Overall bit rate mode          : Variable
    Overall bit rate               : 15.5 Mbps
    
    Video
    ID                             : 33 (0x21)
    Menu ID                        : 1 (0x1)
    Format                         : AVC
    Format/Info                    : Advanced Video Codec
    Format profile                 : [email protected]
    Format settings, CABAC         : Yes
    Format settings, ReFrames      : 4 frames
    Codec ID                       : 27
    Duration                       : 3h 13mn
    Bit rate                       : 14.0 Mbps
    Width                          : 1 920 pixels
    Height                         : 1 080 pixels
    Display aspect ratio           : 16:9
    Frame rate                     : 25.000 fps
    Color space                    : YUV
    Chroma subsampling             : 4:2:0
    Bit depth                      : 8 bits
    Scan type                      : Interlaced
    Scan type, store method        : Separated fields
    Scan order                     : Top Field First
    Bits/(Pixel*Frame)             : 0.269
    Stream size                    : 18.9 GiB (90%)
    Color range                    : Limited
    Color primaries                : BT.709
    Transfer characteristics       : BT.709
    Matrix coefficients            : BT.709
    
    Audio #1
    ID                             : 34 (0x22)
    Menu ID                        : 1 (0x1)
    Format                         : MPEG Audio
    Format version                 : Version 1
    Format profile                 : Layer 2
    Codec ID                       : 3
    Duration                       : 3h 13mn
    Bit rate mode                  : Constant
    Bit rate                       : 384 Kbps
    Channel(s)                     : 2 channels
    Sampling rate                  : 48.0 KHz
    Compression mode               : Lossy
    Delay relative to video        : -12ms
    Stream size                    : 532 MiB (2%)
    Language                       : English
    
    Audio #2
    ID                             : 35 (0x23)
    Menu ID                        : 1 (0x1)
    Format                         : MPEG Audio
    Format version                 : Version 1
    Format profile                 : Layer 2
    Codec ID                       : 3
    Duration                       : 3h 13mn
    Bit rate mode                  : Constant
    Bit rate                       : 384 Kbps
    Channel(s)                     : 2 channels
    Sampling rate                  : 48.0 KHz
    Compression mode               : Lossy
    Delay relative to video        : -20ms
    Stream size                    : 532 MiB (2%)
    Language                       : English
    
    Menu
    ID                             : 32 (0x20)
    Menu ID                        : 1 (0x1)
    Duration                       : 3h 13mn
    List                           : 33 (0x21) (AVC) / 34 (0x22) (MPEG Audio, English) / 35 (0x23) (MPEG Audio, English)
    Language                       :  / English / English
    Maximum bit rate               : 200000000
    Nhấn nút Cảm ơn (dưới chân bài) để thấy link!
     
    Chỉnh sửa cuối: 10/2/18
    Joshpham79, Ylang1030, hdbvg and 9 others like this.
  10. kennyminh

    kennyminh Well-Known Member

    Tham gia ngày:
    16/3/09
    Bài viết:
    3,461
    Đã được cảm ơn:
    34,164
    Giới tính:
    Nam
    Nơi ở:
    Vietnam
    [​IMG]
    [​IMG]
    Mã:
    General
    ID                             : 8900 (0x22C4)
    Complete name                  : E:\SNG\20180123 AFC U23 Semi-finals QATAR vs VIETNAM SNG 1080i.ts
    Format                         : MPEG-TS
    File size                      : 20.4 GiB
    Duration                       : 3h 7mn
    Overall bit rate mode          : Variable
    Overall bit rate               : 15.5 Mbps
    
    Video
    ID                             : 33 (0x21)
    Menu ID                        : 1 (0x1)
    Format                         : AVC
    Format/Info                    : Advanced Video Codec
    Format profile                 : [email protected]
    Format settings, CABAC         : Yes
    Format settings, ReFrames      : 4 frames
    Codec ID                       : 27
    Duration                       : 3h 7mn
    Bit rate                       : 14.0 Mbps
    Width                          : 1 920 pixels
    Height                         : 1 080 pixels
    Display aspect ratio           : 16:9
    Frame rate                     : 25.000 fps
    Color space                    : YUV
    Chroma subsampling             : 4:2:0
    Bit depth                      : 8 bits
    Scan type                      : Interlaced
    Scan type, store method        : Separated fields
    Scan order                     : Top Field First
    Bits/(Pixel*Frame)             : 0.269
    Stream size                    : 18.3 GiB (90%)
    Color range                    : Limited
    Color primaries                : BT.709
    Transfer characteristics       : BT.709
    Matrix coefficients            : BT.709
    
    Audio #1
    ID                             : 34 (0x22)
    Menu ID                        : 1 (0x1)
    Format                         : MPEG Audio
    Format version                 : Version 1
    Format profile                 : Layer 2
    Codec ID                       : 3
    Duration                       : 3h 7mn
    Bit rate mode                  : Constant
    Bit rate                       : 384 Kbps
    Channel(s)                     : 2 channels
    Sampling rate                  : 48.0 KHz
    Compression mode               : Lossy
    Delay relative to video        : 350ms
    Stream size                    : 516 MiB (2%)
    Language                       : English
    
    Audio #2
    ID                             : 35 (0x23)
    Menu ID                        : 1 (0x1)
    Format                         : MPEG Audio
    Format version                 : Version 1
    Format profile                 : Layer 2
    Codec ID                       : 3
    Duration                       : 3h 7mn
    Bit rate mode                  : Constant
    Bit rate                       : 384 Kbps
    Channel(s)                     : 2 channels
    Sampling rate                  : 48.0 KHz
    Compression mode               : Lossy
    Delay relative to video        : 390ms
    Stream size                    : 516 MiB (2%)
    Language                       : English
    
    Menu
    ID                             : 32 (0x20)
    Menu ID                        : 1 (0x1)
    Duration                       : 3h 7mn
    List                           : 33 (0x21) (AVC) / 34 (0x22) (MPEG Audio, English) / 35 (0x23) (MPEG Audio, English)
    Language                       :  / English / English
    Maximum bit rate               : 200000000
    Nhấn nút Cảm ơn (dưới chân bài) để thấy link!
     
    Chỉnh sửa cuối: 10/2/18
  11. gladiator13579

    gladiator13579 Active Member

    Tham gia ngày:
    14/10/17
    Bài viết:
    109
    Đã được cảm ơn:
    57
    Bạn hướng dẫn download nhé, từ chiều đến giờ loay hoay mãi mà không thấy link để tải.
     
  12. kennyminh

    kennyminh Well-Known Member

    Tham gia ngày:
    16/3/09
    Bài viết:
    3,461
    Đã được cảm ơn:
    34,164
    Giới tính:
    Nam
    Nơi ở:
    Vietnam
    phải trả phí mới lấy đc link download :( mình đang tìm cách vì trận Iraq cũng mò đc link từ google search
     
    gladiator13579 cảm ơn bài này.
  13. gladiator13579

    gladiator13579 Active Member

    Tham gia ngày:
    14/10/17
    Bài viết:
    109
    Đã được cảm ơn:
    57
    bác cố lấy link nhé rồi up lên fshare đi, mình muốn lấy 2 trận này về lưu để thỉnh thoảng xem lại, quá nhiều cảm xúc từ 2 trận này bác ah. thanks bác.
     
  14. ahuyblog

    ahuyblog Well-Known Member

    Tham gia ngày:
    4/10/10
    Bài viết:
    3,310
    Đã được cảm ơn:
    103,686
    Giới tính:
    Nam
    Nghề nghiệp:
    Chăn trâu
    Nơi ở:
    Chuồng trâu
  15. gladiator13579

    gladiator13579 Active Member

    Tham gia ngày:
    14/10/17
    Bài viết:
    109
    Đã được cảm ơn:
    57
  16. ahuyblog

    ahuyblog Well-Known Member

    Tham gia ngày:
    4/10/10
    Bài viết:
    3,310
    Đã được cảm ơn:
    103,686
    Giới tính:
    Nam
    Nghề nghiệp:
    Chăn trâu
    Nơi ở:
    Chuồng trâu
    không nhé bác!
     
    gladiator13579 cảm ơn bài này.
  17. kennyminh

    kennyminh Well-Known Member

    Tham gia ngày:
    16/3/09
    Bài viết:
    3,461
    Đã được cảm ơn:
    34,164
    Giới tính:
    Nam
    Nơi ở:
    Vietnam
    gladiator13579 cảm ơn bài này.
  18. gladiator13579

    gladiator13579 Active Member

    Tham gia ngày:
    14/10/17
    Bài viết:
    109
    Đã được cảm ơn:
    57
    Thank bác nhé.
     
  19. gladiator13579

    gladiator13579 Active Member

    Tham gia ngày:
    14/10/17
    Bài viết:
    109
    Đã được cảm ơn:
    57
    host baidu này mình đang down bằng netdisk của nó mà tốc độ toàn 5Kb/s, chán quá.
     
  20. quan2811

    quan2811 Member

    Tham gia ngày:
    9/9/10
    Bài viết:
    38
    Đã được cảm ơn:
    0
    Có trận chung kết ko bác? Mặc dù thua nhưng mà bàn của Quang Hải quá đẹp, nhiều khả năng sẽ là bàn thắng đẹp nhất giải luôn. Mình muốn lưu lại làm kỷ niệm. Mong ae ai có thì share với. Thanks!
     

Chia sẻ trang này