[Fshare] [FSHARE|Hành động|Thuyết minh|1 Link|MKV]Jack.Ryan.Shadow.Recruit.2014.Vie.BluRay.720p.AC3. x264-CHD

Thảo luận trong 'Phim có audio Việt' bắt đầu bởi henryduc96, 16/5/14.

  1. henryduc96

    henryduc96 SuperHD Internal HDBits

    Tham gia ngày:
    18/5/13
    Bài viết:
    7,575
    Đã được cảm ơn:
    19,368
    Nơi ở:
    Viet Nam
    Jack.Ryan.Shadow.Recruit.2014.Vie.BluRay.720p.AC3.x264-CHD
    Jack Ryan: Đặc Vụ Bóng Đêm

    [​IMG]
    [​IMG]
    [​IMG]
    [​IMG]

    Mã:
    General
    Unique ID                                : 246515476509024627866995249109027815520 (0xB975275F32C87EF992F00A9488C88060)
    Complete name                            : Jack.Ryan.Shadow.Recruit.2014.Vie.BluRay.720p.AC3.x264-CHD.mkv
    Format                                   : Matroska
    Format version                           : Version 4 / Version 2
    File size                                : 3.71 GiB
    Duration                                 : 1h 45mn
    Overall bit rate                         : 5 022 Kbps
    Encoded date                             : UTC 2014-05-14 01:01:02
    
    
    Writing application                      : mkvmerge v6.7.0 ('Back to the Ground') 32bit built on Jan  8 2014 15:03:17
    Writing library                          : libebml v1.3.0 + libmatroska v1.4.1
    Video
    ID                                       : 1
    Format                                   : AVC
    Format/Info                              : Advanced Video Codec
    Format profile                           : [email protected]
    Format settings, CABAC                   : Yes
    Format settings, ReFrames                : 10 frames
    Codec ID                                 : V_MPEG4/ISO/AVC
    Duration                                 : 1h 45mn
    Bit rate                                 : 4 400 Kbps
    Width                                    : 1 280 pixels
    Height                                   : 536 pixels
    Display aspect ratio                     : 2.40:1
    Frame rate mode                          : Constant
    Frame rate                               : 23.976 fps
    Color space                              : YUV
    Chroma subsampling                       : 4:2:0
    Bit depth                                : 8 bits
    Scan type                                : Progressive
    Bits/(Pixel*Frame)                       : 0.267
    Stream size                              : 3.17 GiB (85%)
    Writing library                          : x264 core 138 r2356 a1d3d17
    Encoding settings                        : cabac=1 / ref=10 / deblock=1:-3:-3 / analyse=0x3:0x113 / me=umh / subme=10 / psy=1 / psy_rd=1.00:0.05 / mixed_ref=1 / me_range=32 / chroma_me=1 / trellis=2 / 8x8dct=1 / cqm=0 / deadzone=21,11 / fast_pskip=0 / chroma_qp_offset=-2 / threads=18 / lookahead_threads=1 / sliced_threads=0 / nr=0 / decimate=1 / interlaced=0 / bluray_compat=0 / constrained_intra=0 / bframes=4 / b_pyramid=2 / b_adapt=2 / b_bias=0 / direct=3 / weightb=1 / open_gop=0 / weightp=2 / keyint=250 / keyint_min=23 / scenecut=40 / intra_refresh=0 / rc=2pass / mbtree=0 / bitrate=4400 / ratetol=1.0 / qcomp=0.70 / qpmin=0 / qpmax=69 / qpstep=4 / cplxblur=20.0 / qblur=0.5 / ip_ratio=1.40 / pb_ratio=1.30 / aq=2:1.00
    Language                                 : English
    Default                                  : Yes
    Forced                                   : No
    Audio
    ID                                       : 2
    Format                                   : AC-3
    Format/Info                              : Audio Coding 3
    Mode extension                           : CM (complete main)
    Format settings, Endianness              : Big
    Codec ID                                 : A_AC3
    Duration                                 : 1h 45mn
    Bit rate mode                            : Constant
    Bit rate                                 : 640 Kbps
    Channel(s)                               : 6 channels
    Channel positions                        : Front: L C R, Side: L R, LFE
    Sampling rate                            : 48.0 KHz
    Bit depth                                : 16 bits
    Compression mode                         : Lossy
    Stream size                              : 484 MiB (13%)
    Title                                    : [B][COLOR="#0000CD"]Thuyet minh[/COLOR][/B]
    Language                                 : [B][COLOR="#FF8C00"]Vietnamese[/COLOR][/B]
    Default                                  : Yes
    Forced                                   : No
    
    [​IMG]
    [​IMG] [​IMG] [​IMG]
    [​IMG] [​IMG] [​IMG]
    1 Link~3.72GB
    Bạn nhấn nút Thanks, sau đó nhấn F5 để lấy link nhé!
    Nhấn nút Cảm ơn (dưới chân bài) để thấy link!
     
  2. Đang tải...


  3. cuongtbgd

    cuongtbgd Active Member

    Tham gia ngày:
    13/3/14
    Bài viết:
    472
    Đã được cảm ơn:
    126
    Giới tính:
    Nam
    Ðề: [FSHARE|Hành động|Thuyết minh|1 Link|MKV]Jack.Ryan.Shadow.Recruit.2014.Vie.BluRay.720p.AC3. x264-CHD~Jack Ryan: Đặc Vụ Bóng Đêm

    Nhìn poster cũng ấn tượng, cảm ơn henryduc96
     

Chia sẻ trang này