[Fshare] Happy Family 2017 ViE 1080p WEB-DL H264 AC3-[EVO-JadViE] ~ Gia Đình Là Tất Cả

Thảo luận trong 'Phim hoạt hình' bắt đầu bởi hbinhlove2003, 2/3/18.

  1. hbinhlove2003

    hbinhlove2003 Well-Known Member

    Tham gia ngày:
    22/8/09
    Bài viết:
    20,114
    Đã được cảm ơn:
    33,798
    Giới tính:
    Nam
    Nghề nghiệp:
    IT
    Nơi ở:
    VN
    Happy Family 2017 ViE 1080p WEB-DL H264 AC3-[EVO-JadViE]

    Gia Đình Là Tất Cả

    Lồng tiếng thu rạp


    [​IMG]

    Dựa trên cuốn tiểu thuyết cùng tên của tác giả từng giành giải thưởng Emmy David Safier ("Berlin, Berlin"). “Happy Family” đã được dịch sang 18 ngôn ngữ khác nhau và phát hành tại hơn 40 quốc gia. Chuyện phim kể về “gia đình ma quái” Wishbone lúc nào cũng u ám. Hành trình vòng quanh thế giới nhằm truy lùng tung tích mụ phù thuỷ và hoá giải lời nguyền đầy khó khăn đã khiến mọi người nhận ra không có gì quan trọng hơn gia đình.


    Mã:
    Format                      : Matroska
    Format version              : Version 4 / Version 2
    File size                   : 3.18 GiB
    Duration                    : 1 h 32 min
    Overall bit rate            : 4 904 kb/s
    Movie name                  : EVO
    Encoded date                : UTC 2018-02-28 08:45:46
    Writing application         : mkvmerge v11.0.0 ('Alive') 64bit
    Writing library             : libebml v1.3.4 + libmatroska v1.4.5
    
    
    Video
    ID                          : 1
    Format                      : AVC
    Format/Info                 : Advanced Video Codec
    Format profile              : [email protected]
    Format settings, CABAC      : Yes
    Format settings, ReFrames   : 5 frames
    Codec ID                    : V_MPEG4/ISO/AVC
    Duration                    : 1 h 32 min
    Bit rate                    : 4 518 kb/s
    Width                       : 1 916 pixels
    Height                      : 796 pixels
    Display aspect ratio        : 2.40:1
    Frame rate mode             : Constant
    Frame rate                  : 23.976 (23976/1000) FPS
    Color space                 : YUV
    Chroma subsampling          : 4:2:0
    Bit depth                   : 8 bits
    Scan type                   : Progressive
    Bits/(Pixel*Frame)          : 0.124
    Stream size                 : 2.93 GiB (92%)
    Language                    : English
    Default                     : Yes
    Forced                      : No
    Color range                 : Limited
    Color primaries             : BT.709
    Transfer characteristics    : BT.709
    Matrix coefficients         : BT.709
    Audio #1
    ID                          : 2
    Format                      : AC-3
    Format/Info                 : Audio Coding 3
    Format settings, Endianness : Big
    Codec ID                    : A_AC3
    Duration                    : 1 h 32 min
    Bit rate mode               : Constant
    Bit rate                    : 192 kb/s
    Channel(s)                  : 2 channels
    Channel positions           : Front: L R
    Sampling rate               : 48.0 kHz
    Frame rate                  : 31.250 FPS (1536 spf)
    Bit depth                   : 16 bits
    Compression mode            : Lossy
    Stream size                 : 128 MiB (4%)
    Title                       : @JadViE Studio
    Language                    : Vietnamese
    Service kind                : Complete Main
    Default                     : No
    Forced                      : No
    Audio #2
    ID                          : 3
    Format                      : AC-3
    Format/Info                 : Audio Coding 3
    Format settings, Endianness : Big
    Codec ID                    : A_AC3
    Duration                    : 1 h 32 min
    Bit rate mode               : Constant
    Bit rate                    : 192 kb/s
    Channel(s)                  : 2 channels
    Channel positions           : Front: L R
    Sampling rate               : 48.0 kHz
    Frame rate                  : 31.250 FPS (1536 spf)
    Bit depth                   : 16 bits
    Compression mode            : Lossy
    Stream size                 : 128 MiB (4%)
    Language                    : English
    Service kind                : Complete Main
    Default                     : No
    Forced                      : No
    
    https://www.fshare.vn/file/RMKNDLKT62J9
     
    nganthy, huydsg, ongtiennho and 25 others like this.
  2. Đang tải...


  3. 0011223344

    0011223344 Active Member

    Tham gia ngày:
    4/5/10
    Bài viết:
    415
    Đã được cảm ơn:
    135
    ngon chym nha bạn ( Antonio Võ nè ^^)
     
    thecaoicd and hbinhlove2003 like this.

Chia sẻ trang này