[fshare] [Perf] Backstreet Boys - Straight Through My Heart Live Conan O'Brien Show 8.10.2009(1080i

Thảo luận trong 'US-EU' bắt đầu bởi laptrinhtinhyeu305, 21/5/13.

  1. laptrinhtinhyeu305

    laptrinhtinhyeu305 Well-Known Member

    Tham gia ngày:
    3/3/12
    Bài viết:
    1,522
    Đã được cảm ơn:
    996
    Giới tính:
    Nam
    Nghề nghiệp:
    Tự Do
    Nơi ở:
    HCMC
    [Perf] Backstreet Boys - Straight Through My Heart Live Conan O'Brien Show 8.10.2009(1080i HDTV AC3.5.1)

    thumbt

    [​IMG]

    Info

    Mã:

    	

    general infor ID : 1 Complete name : F:\Straight Through My Heart Live Conan O'Brien Show 8.10.2009.mpg Format : MPEG-TS File size : 388 MiB Duration : 4mn 0s Overall bit rate : 13.5 Mbps Video ID : 33 (0x21) Menu ID : 1 (0x1) Format : MPEG Video Format version : Version 2 Format profile : [email protected] Format settings, BVOP : Yes Format settings, Matrix : Default Codec ID : 2 Duration : 4mn 0s Bit rate mode : Variable Bit rate : 12.5 Mbps Nominal bit rate : 65.0 Mbps Width : 1 920 pixels Height : 1 080 pixels Display aspect ratio : 16:9 ActiveFormatDescription : Pillarbox 4:3 image Frame rate : 29.970 fps Color space : YUV Chroma subsampling : 4:2:0 Bit depth : 8 bits Scan type : Interlaced Scan order : Top Field First Bits/(Pixel*Frame) : 0.201 Stream size : 357 MiB (92%) Audio ID : 36 (0x24) Menu ID : 1 (0x1) Format : AC-3 Format/Info : Audio Coding 3 Mode extension : CM (complete main) Codec ID : 129 Duration : 4mn 0s Bit rate mode : Constant Bit rate : 384 Kbps Channel(s) : 6 channels Channel positions : Front: L C R, Side: L R, LFE Sampling rate : 48.0 KHz Bit depth : 16 bits Video delay : -793ms Stream size : 11.0 MiB (3%)
    link download
    Nhấn nút Cảm ơn (dưới chân bài) để thấy link!
     
  2. laptrinhtinhyeu305

    laptrinhtinhyeu305 Well-Known Member

    Tham gia ngày:
    3/3/12
    Bài viết:
    1,522
    Đã được cảm ơn:
    996
    Giới tính:
    Nam
    Nghề nghiệp:
    Tự Do
    Nơi ở:
    HCMC
  3. laptrinhtinhyeu305

    laptrinhtinhyeu305 Well-Known Member

    Tham gia ngày:
    3/3/12
    Bài viết:
    1,522
    Đã được cảm ơn:
    996
    Giới tính:
    Nam
    Nghề nghiệp:
    Tự Do
    Nơi ở:
    HCMC
  4. laptrinhtinhyeu305

    laptrinhtinhyeu305 Well-Known Member

    Tham gia ngày:
    3/3/12
    Bài viết:
    1,522
    Đã được cảm ơn:
    996
    Giới tính:
    Nam
    Nghề nghiệp:
    Tự Do
    Nơi ở:
    HCMC
  5. laptrinhtinhyeu305

    laptrinhtinhyeu305 Well-Known Member

    Tham gia ngày:
    3/3/12
    Bài viết:
    1,522
    Đã được cảm ơn:
    996
    Giới tính:
    Nam
    Nghề nghiệp:
    Tự Do
    Nơi ở:
    HCMC

Chia sẻ trang này