[Fshare] Gặp nhau cuối năm PACK (2003-2010)

Thảo luận trong 'mHD, SD' bắt đầu bởi hungr1977, 12/12/10.

  1. hungr1977

    hungr1977 Member

    Tham gia ngày:
    7/5/09
    Bài viết:
    107
    Đã được cảm ơn:
    6
    [​IMG]
    [​IMG]
    [​IMG]
    [​IMG]

    Mã:

    General
    
    	

    Format : AVI Format/Info : Audio Video Interleave File size : 909 MiB Duration : 1h 26mn Overall bit rate : 1 467 Kbps Video ID : 0 Format : MPEG-4 Visual Format profile : Advanced [email protected] Format settings, BVOP : Yes Format settings, QPel : No Format settings, GMC : No warppoints Format settings, Matrix : Default (H.263) Muxing mode : Packed bitstream Codec ID : XVID Codec ID/Hint : XviD Duration : 1h 26mn Bit rate : 1 296 Kbps Width : 720 pixels Height : 576 pixels Display aspect ratio : 5:4 Frame rate : 25.000 fps Standard : PAL Color space : YUV Chroma subsampling : 4:2:0 Bit depth : 8 bits Scan type : Progressive Compression mode : Lossy Bits/(Pixel*Frame) : 0.125 Stream size : 803 MiB (88%) Writing library : XviD 1.1.2 (UTC 2006-11-01) Audio ID : 1 Format : MPEG Audio Format version : Version 1 Format profile : Layer 3 Codec ID : 55 Codec ID/Hint : MP3 Duration : 1h 26mn Bit rate mode : Constant Bit rate : 160 Kbps Channel(s) : 2 channels Sampling rate : 48.0 KHz Compression mode : Lossy Video delay : 24ms Stream size : 99.2 MiB (11%) Alignment : Split accross interleaves Interleave, duration : 33 ms (0.83 video frame) Interleave, preload duration : 45 ms Title : Audio Stream
    TV cap và DVD​

    Torrent:
    Mã:
    http://all.hdvnbits.org/gap_nhau_cuoi_nam_pack_2003_2010_t3804.html
    Các bạn nên dùng link torrent này để download bằng torrent để đạt max đường truyền

    Mega1280:
    Mã:
    http://mega.1280.com/folder/CSQVXEA80L
     
    Chỉnh sửa cuối: 12/12/10
  2. Đang tải...


  3. hd_movie

    hd_movie New Member

    Tham gia ngày:
    25/10/10
    Bài viết:
    109
    Đã được cảm ơn:
    5
    Ðề: Gặp nhau cuối năm PACK (2003-2010)

    Nếu có thể bác chủ thớt thêm link MF được không. Cám ơn bác nhiều.
     
  4. leecong

    leecong New Member

    Tham gia ngày:
    1/3/09
    Bài viết:
    15
    Đã được cảm ơn:
    5
    Ðề: Gặp nhau cuối năm PACK (2003-2010)

    Bác chủ thớt cho pass giải nén.
    Thx.
     
  5. aitranst

    aitranst Well-Known Member

    Tham gia ngày:
    21/10/09
    Bài viết:
    385
    Đã được cảm ơn:
    591
    Ðề: Gặp nhau cuối năm PACK (2003-2010)

    pass hình như là : all.hdvnbits.org
     
    Chỉnh sửa cuối: 30/1/11

Chia sẻ trang này