[Other] [GDrive]Kiếm Pháp Anh Hào 2002 (Thư Kiếm Ân Cừu Lục)[FFVN - 46/46][DVDRip - Remux]

Thảo luận trong 'mHD, SD' bắt đầu bởi cantoon, 18/4/19.

  1. cantoon

    cantoon Well-Known Member

    Tham gia ngày:
    29/12/12
    Bài viết:
    800
    Đã được cảm ơn:
    10,180
    [​IMG]
    Mã:
    Format : Matroska
    Format version : Version 4
    File size : 541 MiB
    
    
    	

    Duration : 41 min 55 s

    Overall bit rate : 1 803 kb/s Encoded date : UTC 2019-04-17 12:36:52 Writing application : mkvmerge v33.0.0 ('A Little Bit of Madness') 64-bit Writing library : libebml v1.3.7 + libmatroska v1.5.0 Video ID : 2 Format : AVC Format/Info : Advanced Video Codec Format profile : [email protected] Format settings : CABAC / 6 Ref Frames Format settings, CABAC : Yes Format settings, ReFrames : 6 frames Codec ID : V_MPEG4/ISO/AVC Duration : 41 min 55 s Bit rate : 1 611 kb/s Width : 720 pixels Height : 536 pixels Display aspect ratio : 4:3 Frame rate mode : Constant Frame rate : 29.970 (30000/1001) FPS Color space : YUV Chroma subsampling : 4:2:0 Bit depth : 8 bits Scan type : Progressive Bits/(Pixel*Frame) : 0.139 Stream size : 483 MiB (89%) Title : [email protected]风潇潇压制 Writing library : x264 core 146 r2538 121396c Encoding settings : cabac=1 / ref=6 / deblock=1:-3:-3 / analyse=0x3:0x133 / me=umh / subme=9 / psy=1 / psy_rd=1.05:0.10 / mixed_ref=1 / me_range=32 / chroma_me=1 / trellis=2 / 8x8dct=1 / cqm=0 / deadzone=21,11 / fast_pskip=0 / chroma_qp_offset=-3 / threads=6 / lookahead_threads=1 / sliced_threads=0 / nr=0 / decimate=1 / interlaced=0 / bluray_compat=0 / constrained_intra=0 / bframes=6 / b_pyramid=2 / b_adapt=2 / b_bias=0 / direct=1 / weightb=1 / open_gop=0 / weightp=2 / keyint=360 / keyint_min=32 / scenecut=40 / intra_refresh=0 / rc_lookahead=50 / rc=2pass / mbtree=1 / bitrate=1611 / ratetol=1.0 / qcomp=0.60 / qpmin=0 / qpmax=69 / qpstep=4 / cplxblur=20.0 / qblur=0.5 / vbv_maxrate=40000 / vbv_bufsize=40000 / nal_hrd=none / filler=0 / ip_ratio=1.40 / aq=1:1.00 Language : Chinese Default : Yes Forced : No Audio ID : 1 Format : AAC LC Format/Info : Advanced Audio Codec Low Complexity Codec ID : A_AAC-2 Duration : 41 min 55 s Bit rate : 192 kb/s Channel(s) : 2 channels Channel layout : L R Sampling rate : 44.1 kHz Frame rate : 43.066 FPS (1024 SPF) Compression mode : Lossy Stream size : 56.9 MiB (11%) Title : FFVN Language : Vietnamese Default : Yes Forced : Yes
    Tựa phim: Thư Kiếm Ân Cừu Lục (tên khác: Kiếm Pháp Anh Hào)
    Tên tiếng Hoa: 书剑恩仇录

    Cảm ơn Bác @quachni đã cung cấp Audio FFVN:D

    Bộ này mình kéo lại Source nên không bị lỗi thiếu 5-10s ở cuối phim như bản USLT lần trước mình mux. Mình bỏ hết Audio tiếng Trung để giảm dung lượng.

    Audio FFVN khá đầy đủ không bị thiếu tập nào, chỉ một số đoạn FFVN cut không lồng tiếng thì mình thêm vào Audio USLT; các đoạn thêm mình liệt kê ở dưới:

    Tập 3 [00:05:58 - 00:07:30]
    Tập 4 [00:05:32 - 00:06:19]
    Tập 20 [00:35:09 - 00:36:51]
    Tập 22 [00:00:07 - 00:03:48]
    Tập 31 [00:24:38 - 00:27:54]
    Tập 32 [00:19:51 - 00:20:10]

    GDrive: 46/46
    Link tải phim
    Nhấn nút Cảm ơn (dưới chân bài) để thấy link!
     
    Chỉnh sửa cuối: 19/7/20
  2. Đang tải...


  3. duytieubao

    duytieubao Member

    Tham gia ngày:
    14/6/12
    Bài viết:
    53
    Đã được cảm ơn:
    32
    cám ơn bạn đã share link google phim này chưa coi
     
    cantoon cảm ơn bài này.
  4. okai2

    okai2 Well-Known Member

    Tham gia ngày:
    21/6/10
    Bài viết:
    528
    Đã được cảm ơn:
    314
    Down lai tiep, xong lay audio USLT tu bo kia mux vo bo nay lam 2 audios. Cam on ban.
     
    nghianhan1176411 and cantoon like this.
  5. cantoon

    cantoon Well-Known Member

    Tham gia ngày:
    29/12/12
    Bài viết:
    800
    Đã được cảm ơn:
    10,180
    chuẩn đấy bạn, ghép luôn 2 audio tiếng Trung thành 4 Audio:D:D
     
    nghianhan1176411 cảm ơn bài này.
  6. tatam

    tatam Well-Known Member

    Tham gia ngày:
    30/10/10
    Bài viết:
    4,100
    Đã được cảm ơn:
    25,378
    Giới tính:
    Nam
    May quá, cứ tưởng bộ này tiếng Việt tập 13 bị "tuyệt tích giang hồ" rồi chứ :D. Thanks.
     
    nghianhan1176411 and cantoon like this.
  7. nghianhan1176411

    nghianhan1176411 Well-Known Member

    Tham gia ngày:
    23/11/12
    Bài viết:
    697
    Đã được cảm ơn:
    580
    kk tks Cậu nhé, phim này girl xinh ko ah :D
     
    cantoon cảm ơn bài này.
  8. nghianhan1176411

    nghianhan1176411 Well-Known Member

    Tham gia ngày:
    23/11/12
    Bài viết:
    697
    Đã được cảm ơn:
    580
    ghép vào rồi share lên đây cho đầy đủ bạn ôi kk
     
  9. cantoon

    cantoon Well-Known Member

    Tham gia ngày:
    29/12/12
    Bài viết:
    800
    Đã được cảm ơn:
    10,180
    bộ này mình thích nhất Tôn Lợi vai Lý Nguyên Chỉ, đóng rất cá tính, dám theo đuổi Dư Ngư Đồng mặt lạnh:D. Nhưng cuối cùng chết gần hết, kết hơi buồn.
     
  10. okai2

    okai2 Well-Known Member

    Tham gia ngày:
    21/6/10
    Bài viết:
    528
    Đã được cảm ơn:
    314
    Phim nay Ban Cantoon up len, vay moi nguoi cung yeu cau Ban Cantoon co thoi gian mux lai thanh 4 audios luon. Minh chi biet mux lai thoi, tai gi file goc giong nhau nen chac mux audio lai se khop nhau. Internet cua minh cham lam, chi down le thoi chu up len ko duoc.
     
  11. bumnhac

    bumnhac Well-Known Member

    Tham gia ngày:
    17/1/09
    Bài viết:
    1,468
    Đã được cảm ơn:
    3,472
    Bạn vui lòng up audio China cho mình đc ko ạ?
     
    Chỉnh sửa cuối: 22/4/19
  12. tatam

    tatam Well-Known Member

    Tham gia ngày:
    30/10/10
    Bài viết:
    4,100
    Đã được cảm ơn:
    25,378
    Giới tính:
    Nam
    Bác lấy link ở đầu topic mà bác chủ đã nói đó.
     
    bumnhac and cantoon like this.
  13. authienvu0123456

    authienvu0123456 Member

    Tham gia ngày:
    24/7/13
    Bài viết:
    88
    Đã được cảm ơn:
    41
    Cảm ơn bạn đã up phim này!
     

Chia sẻ trang này