[Fshare] [Hài | 1link ] I Love Hong Kong (2012) 720p Blu-ray DTS x264-CHD & VAV - Tôi Yêu Hồng Kông 2

Thảo luận trong 'Phim có audio Việt' bắt đầu bởi xemaydinh, 2/11/13.

  1. xemaydinh

    xemaydinh Tem

    Tham gia ngày:
    3/7/10
    Bài viết:
    32,865
    Đã được cảm ơn:
    147,072
    I Love Hong Kong (2012) 720p Blu-ray DTS x264-CHD & VAV


    [​IMG]

    [​IMG]





    Mã:
    General
    Unique ID                                : 234817077768094531702352338912729985706 (0xB0A81FC878CC5F10813AA969FDE972AA)
    Format                                   : Matroska
    Format version                           : Version 2
    File size                                : 4.93 GiB
    Duration                                 : 1h 36mn
    Overall bit rate                         : 7 290 Kbps
    Movie name                               : I.Love.Hong.Kong.2012.ViE.720p.BluRay.2Audio.DTS.x264-CHD&VAV
    Encoded date                             : UTC 2012-07-16 12:42:11
    Writing application                      : mkvmerge v5.7.0 ('The Whirlwind') built on Jul  8 2012 20:08:51
    Writing library                          : libebml v1.2.3 + libmatroska v1.3.0
    
    Video
    ID                                       : 1
    Format                                   : AVC
    Format/Info                              : Advanced Video Codec
    Format profile                           : [email protected]
    Format settings, CABAC                   : Yes
    Format settings, ReFrames                : 10 frames
    Muxing mode                              : Header stripping
    Codec ID                                 : V_MPEG4/ISO/AVC
    Duration                                 : 1h 36mn
    Bit rate                                 : 4 126 Kbps
    Nominal bit rate                         : 4 370 Kbps
    Width                                    : 1 280 pixels
    Height                                   : 544 pixels
    Display aspect ratio                     : 2.35:1
    Frame rate mode                          : Constant
    Frame rate                               : 24.000 fps
    Color space                              : YUV
    Chroma subsampling                       : 4:2:0
    Bit depth                                : 8 bits
    Scan type                                : Progressive
    Bits/(Pixel*Frame)                       : 0.247
    Stream size                              : 2.79 GiB (57%)
    Title                                    : I Love Hong Kong (2012) | VAV | tranvinhhn
    Writing library                          : x264 core 120 r2146 bcd41db
    Encoding settings                        : cabac=1 / ref=10 / deblock=1:-3:-3 / analyse=0x3:0x113 / me=umh / subme=10 / psy=1 / psy_rd=1.00:0.05 / mixed_ref=1 / me_range=32 / chroma_me=1 / trellis=2 / 8x8dct=1 / cqm=0 / deadzone=21,11 / fast_pskip=0 / chroma_qp_offset=-2 / threads=8 / sliced_threads=0 / nr=0 / decimate=1 / interlaced=0 / bluray_compat=0 / constrained_intra=0 / bframes=5 / b_pyramid=2 / b_adapt=2 / b_bias=0 / direct=3 / weightb=1 / open_gop=0 / weightp=2 / keyint=250 / keyint_min=24 / scenecut=40 / intra_refresh=0 / rc_lookahead=40 / rc=2pass / mbtree=0 / bitrate=4370 / ratetol=1.0 / qcomp=0.70 / qpmin=0 / qpmax=69 / qpstep=4 / cplxblur=20.0 / qblur=0.5 / vbv_maxrate=40000 / vbv_bufsize=30000 / nal_hrd=none / ip_ratio=1.40 / pb_ratio=1.30 / aq=2:0.90
    Language                                 : Chinese
    Default                                  : Yes
    Forced                                   : No
    
    Audio #1
    ID                                       : 2
    Format                                   : DTS
    Format/Info                              : Digital Theater Systems
    Mode                                     : 16
    Format settings, Endianness              : Big
    Muxing mode                              : Header stripping
    Codec ID                                 : A_DTS
    Duration                                 : 1h 36mn
    Bit rate mode                            : Constant
    Bit rate                                 : 1 510 Kbps
    Channel count                            : 6 channels
    Channel positions                        : Front: L C R, Side: L R, LFE
    Sampling rate                            : 48.0 KHz
    Bit depth                                : 24 bits
    Compression mode                         : Lossy
    Stream size                              : 1.02 GiB (21%)
    Title                                    : Vietnamese DTS @ 1510 Kbps
    Language                                 : Vietnamese
    Default                                  : Yes
    Forced                                   : No
    
    Audio #2
    ID                                       : 4
    Format                                   : DTS
    Format/Info                              : Digital Theater Systems
    Mode                                     : 16
    Format settings, Endianness              : Big
    Muxing mode                              : Header stripping
    Codec ID                                 : A_DTS
    Duration                                 : 1h 36mn
    Bit rate mode                            : Constant
    Bit rate                                 : 1 509 Kbps
    Channel count                            : 6 channels
    Channel positions                        : Front: L C R, Side: L R, LFE
    Sampling rate                            : 48.0 KHz
    Bit depth                                : 24 bits
    Compression mode                         : Lossy
    Stream size                              : 1.02 GiB (21%)
    Title                                    : Cantonese DTS @ 1510 Kbps
    Language                                 : Chinese
    Default                                  : No
    Forced                                   : No
    
    Text #1
    ID                                       : 3
    Format                                   : UTF-8
    Codec ID                                 : S_TEXT/UTF8
    Codec ID/Info                            : UTF-8 Plain Text
    Title                                    : Vietnamese
    Language                                 : Vietnamese
    Default                                  : Yes
    Forced                                   : No
    
    Text #2
    ID                                       : 5
    Format                                   : UTF-8
    Codec ID                                 : S_TEXT/UTF8
    Codec ID/Info                            : UTF-8 Plain Text
    Title                                    : English
    Language                                 : English
    Default                                  : No
    Forced                                   : No
    
    


    [​IMG]


    [​IMG] [​IMG]
    [​IMG] [​IMG]
    [​IMG] [​IMG]
    [​IMG] [​IMG]

    Link tải phim
    I Love Hong Kong (2012) 720p Blu-ray DTS x264-CHD & VAV
    LINK FSHARE
    Nhấn nút Cảm ơn (dưới chân bài) để thấy link!

    OTHER LINK

    LINK TORRENTS

    Phim đã được Mux đầy đủ Audio Eng + Việt | Sub: Eng + Việt trong file MKV


    [ VAV STUDIO ] TỔNG HỢP PHIM HD THUYẾT MINH TIẾNG VIỆT



    [​IMG] [​IMG] [​IMG]



     
  2. Đang tải...


  3. satthanleo

    satthanleo Member

    Tham gia ngày:
    7/12/09
    Bài viết:
    39
    Đã được cảm ơn:
    24
    Ðề: [Hài | 1link ] I Love Hong Kong (2012) 720p Blu-ray DTS x264-CHD & VAV - Tôi Yêu Hồng Kông 2

    giờ các diễn đàn toàn up phim Mỹ, lâu lâu mình thích xem mấy bộ TQ hài này lắm, thư giãn đổi gió, mà còn có thuyết minh nữa. Cám ơn các bác nhiều. Cố gắng phát huy thể loại hài này cho đa dạng nha :D
     

Chia sẻ trang này