[Fshare] [Hài | 1link ] I Love Wing Chun 2011 BluRay 720p DTS 2Audio x264-CHD & VAV - Tôi yêu Vịnh Xuân

Thảo luận trong 'Phim có audio Việt' bắt đầu bởi xemaydinh, 2/11/13.

  1. xemaydinh

    xemaydinh Tem

    Tham gia ngày:
    3/7/10
    Bài viết:
    32,703
    Đã được cảm ơn:
    145,944
    I Love Wing Chun 2011 BluRay 720p DTS 2Audio x264-CHD & VAV


    [​IMG]

    [​IMG]





    Mã:
    General
    Unique ID                                : 226685889508661082877076543881608348817 (0xAA8A1D3FFA663967876251DE4ED2C491)
    Format                                   : Matroska
    Format version                           : Version 2
    File size                                : 6.12 GiB
    Duration                                 : 1h 41mn
    Overall bit rate                         : 8 623 Kbps
    Movie name                               : I.Love.Wing.Chun.2011.ViE.720p.BluRay.2Audio.DTS.x264-CHD&VAV
    Encoded date                             : UTC 2012-07-27 13:42:19
    Writing application                      : mkvmerge v5.7.0 ('The Whirlwind') built on Jul  8 2012 20:08:51
    Writing library                          : libebml v1.2.3 + libmatroska v1.3.0
    
    Video
    ID                                       : 1
    Format                                   : AVC
    Format/Info                              : Advanced Video Codec
    Format profile                           : [email protected]
    Format settings, CABAC                   : Yes
    Format settings, ReFrames                : 9 frames
    Muxing mode                              : Header stripping
    Codec ID                                 : V_MPEG4/ISO/AVC
    Duration                                 : 1h 41mn
    Bit rate                                 : 5 607 Kbps
    Width                                    : 1 280 pixels
    Height                                   : 720 pixels
    Display aspect ratio                     : 16:9
    Frame rate mode                          : Constant
    Frame rate                               : 24.000 fps
    Color space                              : YUV
    Chroma subsampling                       : 4:2:0
    Bit depth                                : 8 bits
    Scan type                                : Progressive
    Bits/(Pixel*Frame)                       : 0.253
    Stream size                              : 3.86 GiB (63%)
    Title                                    : I Love Wing Chun (2011) | VAV | tranvinhhn
    Writing library                          : x264 core 116 r2044 392e762
    Encoding settings                        : cabac=1 / ref=9 / deblock=1:-3:-3 / analyse=0x3:0x113 / me=umh / subme=10 / psy=1 / psy_rd=1.10:0.15 / mixed_ref=1 / me_range=32 / chroma_me=1 / trellis=2 / 8x8dct=1 / cqm=2 / deadzone=21,11 / fast_pskip=0 / chroma_qp_offset=-2 / threads=12 / sliced_threads=0 / nr=0 / decimate=1 / interlaced=0 / bluray_compat=0 / constrained_intra=0 / bframes=6 / b_pyramid=2 / b_adapt=2 / b_bias=0 / direct=3 / weightb=1 / open_gop=0 / weightp=2 / keyint=250 / keyint_min=24 / scenecut=40 / intra_refresh=0 / rc_lookahead=60 / rc=2pass / mbtree=1 / bitrate=5607 / ratetol=1.0 / qcomp=0.60 / qpmin=1 / qpmax=63 / qpstep=4 / cplxblur=20.0 / qblur=0.5 / vbv_maxrate=40000 / vbv_bufsize=30000 / nal_hrd=none / ip_ratio=1.40 / aq=1:0.80
    Language                                 : Chinese
    Default                                  : Yes
    Forced                                   : No
    
    Audio #1
    ID                                       : 2
    Format                                   : DTS
    Format/Info                              : Digital Theater Systems
    Mode                                     : 16
    Format settings, Endianness              : Big
    Muxing mode                              : Header stripping
    Codec ID                                 : A_DTS
    Duration                                 : 1h 41mn
    Bit rate mode                            : Constant
    Bit rate                                 : 1 510 Kbps
    Channel count                            : 6 channels
    Channel positions                        : Front: L C R, Side: L R, LFE
    Sampling rate                            : 48.0 KHz
    Bit depth                                : 24 bits
    Compression mode                         : Lossy
    Stream size                              : 1.07 GiB (18%)
    Title                                    : Vietnamese DTS 5.1 @ 1510 Kbps
    Language                                 : Vietnamese
    Default                                  : Yes
    Forced                                   : No
    
    Audio #2
    ID                                       : 4
    Format                                   : DTS
    Format/Info                              : Digital Theater Systems
    Mode                                     : 16
    Format settings, Endianness              : Big
    Muxing mode                              : Header stripping
    Codec ID                                 : A_DTS
    Duration                                 : 1h 41mn
    Bit rate mode                            : Constant
    Bit rate                                 : 1 509 Kbps
    Channel count                            : 6 channels
    Channel positions                        : Front: L C R, Side: L R, LFE
    Sampling rate                            : 48.0 KHz
    Bit depth                                : 24 bits
    Compression mode                         : Lossy
    Stream size                              : 1.07 GiB (18%)
    Title                                    : Cantonese DTS 5.1 @ 1510 Kbps
    Language                                 : Chinese
    Default                                  : No
    Forced                                   : No
    
    Text #1
    ID                                       : 3
    Format                                   : UTF-8
    Codec ID                                 : S_TEXT/UTF8
    Codec ID/Info                            : UTF-8 Plain Text
    Title                                    : English
    Language                                 : English
    Default                                  : Yes
    Forced                                   : No
    
    Text #2
    ID                                       : 5
    Format                                   : UTF-8
    Codec ID                                 : S_TEXT/UTF8
    Codec ID/Info                            : UTF-8 Plain Text
    Title                                    : Vietnamese
    Language                                 : Vietnamese
    Default                                  : No
    Forced                                   : No
    
    Text #3
    ID                                       : 6
    Format                                   : UTF-8
    Codec ID                                 : S_TEXT/UTF8
    Codec ID/Info                            : UTF-8 Plain Text
    Title                                    : VAV tranvinhhn info
    Language                                 : yap
    Default                                  : No
    Forced                                   : No
    
    


    [​IMG]


    [​IMG] [​IMG]
    [​IMG] [​IMG]


    [video=youtube;Mfl6lfFDKCY]http://www.youtube.com/watch?v=Mfl6lfFDKCY[/video]

    Link tải phim
    I Love Wing Chun 2011 BluRay 720p DTS 2Audio x264-CHD & VAV
    LINK FSHARE
    Nhấn nút Cảm ơn (dưới chân bài) để thấy link!

    OTHER LINK

    LINK TORRENTS

    Phim đã được Mux đầy đủ Audio Eng + Việt | Sub: Eng + Việt trong file MKV


    [ VAV STUDIO ] TỔNG HỢP PHIM HD THUYẾT MINH TIẾNG VIỆT



    [​IMG] [​IMG] [​IMG]



     
  2. Đang tải...


  3. satthanleo

    satthanleo Member

    Tham gia ngày:
    7/12/09
    Bài viết:
    39
    Đã được cảm ơn:
    24
    Ðề: [Hài | 1link ] I Love Wing Chun 2011 BluRay 720p DTS 2Audio x264-CHD & VAV - Tôi yêu Vịnh Xuân

    phải chi cỡ 4GB là em trữ đc nhiều hàng hơn r, đành xem xong xóa. thanks bác.
     
  4. Dat161

    Dat161 Active Member

    Tham gia ngày:
    23/12/10
    Bài viết:
    252
    Đã được cảm ơn:
    206
    Ðề: [Hài | 1link ] I Love Wing Chun 2011 BluRay 720p DTS 2Audio x264-CHD & VAV - Tôi yêu Vịnh Xuân

    có bản 1080p ko bác,, để mình hóng :)
     
  5. xemaydinh

    xemaydinh Tem

    Tham gia ngày:
    3/7/10
    Bài viết:
    32,703
    Đã được cảm ơn:
    145,944
    Ðề: [Hài | 1link ] I Love Wing Chun 2011 BluRay 720p DTS 2Audio x264-CHD & VAV - Tôi yêu Vịnh Xuân

    phim này làm lâu rùi, nên hem có :D. Bây h VAV khi làm phim mới sẽ làm cả 720p,1080p,bluray :)
     
  6. Dat161

    Dat161 Active Member

    Tham gia ngày:
    23/12/10
    Bài viết:
    252
    Đã được cảm ơn:
    206
    Ðề: [Hài | 1link ] I Love Wing Chun 2011 BluRay 720p DTS 2Audio x264-CHD & VAV - Tôi yêu Vịnh Xuân

    vậy giờ có làm lại phim này 1080p ko anh xe máy :v hay là chỉ bản 720 này,, để em biết,, nếu ko có 1080p nữa thì em quất 720p này về ,, kaka
     
  7. xemaydinh

    xemaydinh Tem

    Tham gia ngày:
    3/7/10
    Bài viết:
    32,703
    Đã được cảm ơn:
    145,944
    Ðề: [Hài | 1link ] I Love Wing Chun 2011 BluRay 720p DTS 2Audio x264-CHD & VAV - Tôi yêu Vịnh Xuân

    có lẽ không. Dự án VAV còn rất nhiều ở phía trc :)
     

Chia sẻ trang này