[Hài Hước | Hàn Quốc] My Love My Bride 2014 720p BluRay DTS x264-GiMCHi | WiKi - Cô Dâu Nổi Loạn

Thảo luận trong '4share.vn' bắt đầu bởi chanchan nannan, 27/5/15.

  1. chanchan nannan

    chanchan nannan Well-Known Member

    Tham gia ngày:
    26/5/15
    Bài viết:
    5,719
    Đã được cảm ơn:
    3,401
    Nghề nghiệp:
    Đang thất nhiệp
    Nơi ở:
    Việt Nam
    My Love My Bride 2014 720p BluRay x264-GiMCHi
    Cô Dâu Nổi Loạn
    [Hài Hước]
    (Jung-suk Jo, Min-a Shin, Seong-woo Bae)

    Ratings: 6.7/10 from 87 users


    [​IMG]


    INFO

    Mã:
    Video
    ID                                       : 1
    Format                                   : AVC
    Format/Info                              : Advanced Video Codec
    Format profile                           : [email protected]
    Format settings, CABAC                   : Yes
    Format settings, ReFrames                : 5 frames
    Codec ID                                 : V_MPEG4/ISO/AVC
    
    
    Duration                                 : 1h 51mn
    Bit rate                                 : 4 118 Kbps
    Width                                    : 1 280 pixels
    Height                                   : 544 pixels
    Display aspect ratio                     : 2.35:1
    Frame rate mode                          : Constant
    Frame rate                               : 23.976 fps
    Color space                              : YUV
    Chroma subsampling                       : 4:2:0
    Bit depth                                : 8 bits
    Scan type                                : Progressive
    Bits/(Pixel*Frame)                       : 0.247
    Stream size                              : 3.11 GiB (71%)
    Writing library                          : x264 core 146 r2538 121396c
    Encoding settings                        : cabac=1 / ref=5 / deblock=1:0:0 / analyse=0x3:0x133 / me=umh / subme=7 / psy=1 / psy_rd=1.00:0.00 / mixed_ref=1 / me_range=16 / chroma_me=1 / trellis=1 / 8x8dct=1 / cqm=0 / deadzone=21,11 / fast_pskip=0 / chroma_qp_offset=-2 / threads=12 / lookahead_threads=2 / sliced_threads=0 / nr=0 / decimate=1 / interlaced=0 / bluray_compat=0 / constrained_intra=0 / bframes=3 / b_pyramid=2 / b_adapt=2 / b_bias=0 / direct=3 / weightb=1 / open_gop=0 / weightp=2 / keyint=240 / keyint_min=23 / scenecut=40 / intra_refresh=0 / rc_lookahead=50 / rc=2pass / mbtree=1 / bitrate=4118 / ratetol=1.0 / qcomp=0.60 / qpmin=0 / qpmax=69 / qpstep=4 / cplxblur=20.0 / qblur=0.5 / ip_ratio=1.40 / aq=1:1.00
    Language                                 : English
    Default                                  : Yes
    Forced                                   : No
    Audio
    ID                                       : 2
    Format                                   : DTS
    Format/Info                              : Digital Theater Systems
    Mode                                     : 16
    Format settings, Endianness              : Big
    Codec ID                                 : A_DTS
    Duration                                 : 1h 51mn
    Bit rate mode                            : Constant
    Bit rate                                 : 1 509 Kbps
    Channel(s)                               : 6 channels
    Channel positions                        : Front: L C R, Side: L R, LFE
    Sampling rate                            : 48.0 KHz
    Bit depth                                : 24 bits
    Compression mode                         : Lossy
    Stream size                              : 1.17 GiB (27%)
    Language                                 : Korean
    Default                                  : Yes
    Forced                                   : No
    Text
    ID                                       : 3
    Format                                   : UTF-8
    Codec ID                                 : S_TEXT/UTF8
    Codec ID/Info                            : UTF-8 Plain Text
    Language                                 : English
    Default                                  : Yes
    Forced                                   : No
    

    SCREENSHOT

    [​IMG] [​IMG] [​IMG] [​IMG] [​IMG] [​IMG]

    TRAILER

    [video=youtube;KW_tw-ksGaI]https://www.youtube.com/watch?v=KW_tw-ksGaI[/video]

    DOWNLOAD

    4SHARE

    FSHARE

    TENLUA

    PHỤ ĐỀ
     
    Chỉnh sửa cuối: 28/5/15
  2. chanchan nannan

    chanchan nannan Well-Known Member

    Tham gia ngày:
    26/5/15
    Bài viết:
    5,719
    Đã được cảm ơn:
    3,401
    Nghề nghiệp:
    Đang thất nhiệp
    Nơi ở:
    Việt Nam
  3. chanchan nannan

    chanchan nannan Well-Known Member

    Tham gia ngày:
    26/5/15
    Bài viết:
    5,719
    Đã được cảm ơn:
    3,401
    Nghề nghiệp:
    Đang thất nhiệp
    Nơi ở:
    Việt Nam
  4. chanchan nannan

    chanchan nannan Well-Known Member

    Tham gia ngày:
    26/5/15
    Bài viết:
    5,719
    Đã được cảm ơn:
    3,401
    Nghề nghiệp:
    Đang thất nhiệp
    Nơi ở:
    Việt Nam

Chia sẻ trang này