[Hài Hước] Search Party 2014 1080p WEB-DL DD5.1 H.264-RARBG ~ Hành Trình Tìm Kiếm (Alison Brie, Kr

Thảo luận trong 'WEB-DL, HDTV' bắt đầu bởi thien my, 18/5/15.

  1. thien my

    thien my Well-Known Member

    Tham gia ngày:
    7/12/09
    Bài viết:
    7,810
    Đã được cảm ơn:
    29,757
    Giới tính:
    Nam
    Nghề nghiệp:
    Ăn Không Ngồi rồi
    Nơi ở:
    Hàng xẻng
    Search Party 2014 1080p WEB-DL DD5.1 H.264-RARBG
    Hành Trình Tìm Kiếm
    (Alison Brie, Krysten Ritter, T.J. Miller )





    [​IMG]

    Mã:
    MEDIAINFO
    Video
    ID                                       : 1
    Format                                   : AVC
    Format/Info                              : Advanced Video Codec
    Format profile                           : [email protected]
    Format settings, CABAC                   : Yes
    Format settings, ReFrames                : 5 frames
    Codec ID                                 : V_MPEG4/ISO/AVC
    Duration                                 : 1h 29mn
    
    
    Bit rate                                 : 4 349 Kbps
    Width                                    : 1 920 pixels
    Height                                   : 808 pixels
    Display aspect ratio                     : 2.40:1
    Frame rate mode                          : Constant
    Frame rate                               : 25.000 fps
    Color space                              : YUV
    Chroma subsampling                       : 4:2:0
    Bit depth                                : 8 bits
    Scan type                                : Progressive
    Bits/(Pixel*Frame)                       : 0.112
    Stream size                              : 2.72 GiB (90%)
    Title                                    : Search.Party.2014.1080p.WEB-DL.DD5.1.H264-RARBG
    Language                                 : English
    Default                                  : Yes
    Forced                                   : No
    Color primaries                          : BT.709
    Transfer characteristics                 : BT.709
    Matrix coefficients                      : BT.709
    Color range                              : Limited
    Audio
    ID                                       : 2
    Format                                   : AC-3
    Format/Info                              : Audio Coding 3
    Mode extension                           : CM (complete main)
    Format settings, Endianness              : Big
    Codec ID                                 : A_AC3
    Duration                                 : 1h 29mn
    Bit rate mode                            : Constant
    Bit rate                                 : 384 Kbps
    Channel(s)                               : 6 channels
    Channel positions                        : Front: L C R, Side: L R, LFE
    Sampling rate                            : 48.0 KHz
    Bit depth                                : 16 bits
    Compression mode                         : Lossy
    Stream size                              : 246 MiB (8%)
    Title                                    : Search.Party.2014.1080p.WEB-DL.DD5.1.H264-RARBG
    Language                                 : English
    Default                                  : Yes
    Forced                                   : No

    [​IMG]

    "Một anh chàng cùng bạn của anh lao vào một nhiệm vụ với mục đích đoàn tụ với người phụ nữ anh ấy sẽ kết hôn,....."​




    [​IMG] [​IMG] [​IMG] [​IMG] [​IMG] [​IMG]


    [​IMG]


    [video=youtube;gK_e4jVC6z8]https://www.youtube.com/watch?v=gK_e4jVC6z8[/video]

    [​IMG]



    Host Chiase.io
    Download Max Speed Mà Không cần Acc VIP
    Hãy Đăng Ký Ngay 1 Tài Khoản Và Trải Nghiệm Nào
    Nhấn nút Cảm ơn (dưới chân bài) để thấy link!

    Subtitles

     
    hngquc1234 cảm ơn bài này.
  2. Đang tải...


Chia sẻ trang này