[Fshare] [Hài] Stephen Chow 1988-2017 VIE DUB BluRay 1080p x265.10bit 2Audio MNHD-FRDS ~ Châu Tinh Tinh

Thảo luận trong 'Phim có audio Việt' bắt đầu bởi nguyenthanht2010, 1/8/21.

  1. nguyenthanht2010

    nguyenthanht2010 Well-Known Member

    Tham gia ngày:
    25/10/10
    Bài viết:
    1,640
    Đã được cảm ơn:
    1,774
    Giới tính:
    Nam
    Stephen Chow 1988-2017 VIE DUB BluRay 1080p x265.10bit 2Audio MNHD-FRDS

    Trọn Bộ Châu Tinh Tinh

    Dolby Digital 5.1 | Audio USLT + Thuyết Minh

    [​IMG]


    [​IMG]

    Châu Tinh Tinh mình sẽ không cần giới thiệu nữa. Ai có sở thích hài bựa, nhảm thì anh Tinh không còn xa lạ gì. Mình chỉ giới thiệu sơ lược về project làm audio Lồng tiếng cho bộ này:

    Project làm audio Lồng tiếng cho bộ CTT này mình khởi động hơn 1 năm về trước. Lúc đó mình cũng có 1 bộ hầm bà lằng hàng kéo từ khắp nơi: 720P có, HDTV có, Webrip có... và hầu như là 720P. Sau này hì hục kéo mấy cái 720p của nhóm Wiki từ baidu nữa và tạm thấy khá được. Vậy mà lúc tám trên discord của VOzer thì dc phán 1 câu là hàng lởm làm mình tái mặt. Sau đó được 1 cậu vozer trên discord (bạn ntbzhsc) giúp kéo bộ FRDS về (lúc đó mình không biết trên tracker cũng có sẵn source bộ này) mình mới bàng hoàng nhận ra bộ sưu tập bấy lâu nay toàn là đồ phế thải. Hàng mới có được khá đồng nhất, đặc biệt là audio 5.1 xịn xò. Mỗi tội lúc đó chưa có ai làm audio Lồng tiếng cho bộ FRDS cả. Với lòng đam mê phim anh Tinh (mà các bạn biết phim anh Tinh phải là hàng Lồng tiếng US nghe mới phê, giống như cà pháo phải có mắm tôm vậy) mình quyết định sync audio Lồng tiếng cho cả bộ này. Lúc đầu mình tính chỉ sync và mix vào thôi, nhưng nhìn cái audio gốc 5.1 cầm lòng không được, thử sync lại 1 cái 5.1 và đưa cậu ấy nghe thử: Nghe quá phê! Vậy là mình quyết tâm mix luôn 5.1 cho cả bộ. Việc mix 5.1 quá tốn thời gian: Vì ngoài căn lời nhân vật, phải căn luôn cả tiếng động (hàng Lồng tiếng nó vừa có lồng tiếng, vừa có tiếng động giả (không phải tiếng động như audio gốc) mà lại lệch tùm lum) thành ra lúc đầu dự định bộ này 1 tháng là xong. Ai ngờ sau đó mình quá bận với lại việc mix 5.1 kỳ công quá nên mình chỉ hoàn thành gần 1 nửa rồi cậu ấy up trước lên 1 tracker. Thời gian này có dịch dc ở nhà, mình mới có thời gian hoàn thành bộ này vừa là phục vụ sở thích cá nhân vừa để phục vụ các bạn.

    Xin cảm ơn bạn ntbzhsc (vozer) đã hỗ trợ mình rất nhiều để hoàn thành project này!


    Mã:
    General
    Unique ID  : 240641629922674484460181376076031915456 (0xB509E4603C0CDFB1BF553E14E6D2F5C0)
    Complete name  : K:\Stephen.Chow.1988-2017.VIE.DUB.BluRay.1080p.x265.10bit.2Audio.MNHD-FRDS\Royal.Tramp.1992.BluRay.1080p.x265.10bit.2Audio.MNHD-FRDS\Royal.Tramp.1992.BluRay.1080p.x265.10bit.2Audio.MNHD-FRDS.mkv
    Format  : Matroska
    Format version  : Version 4
    File size  : 7.00 GiB
    
    
    Duration  : 1 h 50 min
    Overall bit rate  : 9 103 kb/s
    Encoded date  : UTC 2021-07-29 05:52:04
    Writing application  : mkvmerge v12.0.0 ('Trust / Lust') 64bit
    Writing library  : libebml v1.3.4 + libmatroska v1.4.5
    Video
    ID  : 1
    Format  : HEVC
    Format/Info  : High Efficiency Video Coding
    Format profile  : Main [email protected]@Main
    Codec ID  : V_MPEGH/ISO/HEVC
    Duration  : 1 h 50 min
    Bit rate  : 6 889 kb/s
    Width  : 1 920 pixels
    Height  : 1 022 pixels
    Display aspect ratio  : 1.85:1
    Frame rate mode  : Constant
    Frame rate  : 23.976 (24000/1001) FPS
    Color space  : YUV
    Chroma subsampling  : 4:2:0
    Bit depth  : 10 bits
    Bits/(Pixel*Frame)  : 0.146
    Stream size  : 5.30 GiB (76%)
    Writing library  : x265 2.4+27-e9e574bbed93:[Windows][GCC 6.3.0][64 bit] 10bit
    Encoding settings  : cpuid=1173503 / frame-threads=6 / numa-pools=36 / wpp / no-pmode / no-pme / no-psnr / no-ssim / log-level=2 / input-csp=1 / input-res=1920x1022 / interlace=0 / total-frames=158407 / level-idc=0 / high-tier=1 / uhd-bd=0 / ref=5 / no-allow-non-conformance / no-repeat-headers / annexb / no-aud / no-hrd / info / hash=0 / no-temporal-layers / no-open-gop / min-keyint=1 / keyint=360 / bframes=8 / b-adapt=2 / b-pyramid / bframe-bias=0 / rc-lookahead=60 / lookahead-slices=4 / scenecut=40 / no-intra-refresh / ctu=32 / min-cu-size=8 / no-rect / no-amp / max-tu-size=16 / tu-inter-depth=2 / tu-intra-depth=2 / limit-tu=4 / rdoq-level=2 / dynamic-rd=0.00 / ssim-rd / signhide / no-tskip / nr-intra=0 / nr-inter=0 / no-constrained-intra / no-strong-intra-smoothing / max-merge=3 / limit-refs=2 / limit-modes / me=3 / subme=5 / merange=25 / temporal-mvp / weightp / weightb / no-analyze-src-pics / deblock=-1:-1 / no-sao / no-sao-non-deblock / rd=4 / no-early-skip / rskip / no-fast-intra / no-tskip-fast / no-cu-lossless / b-intra / rdpenalty=1 / psy-rd=0.00 / psy-rdoq=5.00 / no-rd-refine / analysis-mode=0 / no-lossless / cbqpoffs=-2 / crqpoffs=-2 / rc=crf / crf=21.0 / qcomp=0.70 / qpstep=4 / stats-write=0 / stats-read=0 / ipratio=1.40 / pbratio=1.30 / aq-mode=2 / aq-strength=0.80 / cutree / zone-count=0 / no-strict-cbr / qg-size=16 / no-rc-grain / qpmax=69 / qpmin=0 / sar=0 / overscan=0 / videoformat=5 / range=0 / colorprim=1 / transfer=2 / colormatrix=2 / chromaloc=0 / display-window=0 / max-cll=0,0 / min-luma=0 / max-luma=1023 / log2-max-poc-lsb=8 / vui-timing-info / vui-hrd-info / slices=1 / opt-qp-pps / opt-ref-list-length-pps / no-multi-pass-opt-rps / scenecut-bias=0.05 / no-opt-cu-delta-qp / no-aq-motion / no-hdr / no-hdr-opt / no-dhdr10-opt / refine-level=5 / no-limit-sao / ctu-info=0
    Default  : Yes
    Forced  : No
    Color range  : Limited
    Color primaries  : BT.709
    Audio #1
    ID  : 2
    Format  : AC-3
    Format/Info  : Audio Coding 3
    Commercial name  : Dolby Digital
    Format settings  : Dolby Surround EX
    Codec ID  : A_AC3
    Duration  : 1 h 50 min
    Bit rate mode  : Constant
    Bit rate  : 640 kb/s
    Channel(s)  : 6 channels
    Channel layout  : L R C LFE Ls Rs
    Sampling rate  : 48.0 kHz
    Frame rate  : 31.250 FPS (1536 SPF)
    Compression mode  : Lossy
    Stream size  : 504 MiB (7%)
    Language  : Chinese
    Service kind  : Complete Main
    Default  : No
    Forced  : No
    Audio #2
    ID  : 3
    Format  : AC-3
    Format/Info  : Audio Coding 3
    Commercial name  : Dolby Digital
    Format settings  : Dolby Surround EX
    Codec ID  : A_AC3
    Duration  : 1 h 50 min
    Bit rate mode  : Constant
    Bit rate  : 640 kb/s
    Channel(s)  : 6 channels
    Channel layout  : L R C LFE Ls Rs
    Sampling rate  : 48.0 kHz
    Frame rate  : 31.250 FPS (1536 SPF)
    Compression mode  : Lossy
    Stream size  : 504 MiB (7%)
    Language  : Chinese
    Service kind  : Complete Main
    Default  : No
    Forced  : No
    Audio #3
    ID  : 6
    Format  : MPEG Audio
    Format version  : Version 1
    Format profile  : Layer 3
    Codec ID  : A_MPEG/L3
    Codec ID/Hint  : MP3
    Duration  : 1 h 50 min
    Bit rate mode  : Constant
    Bit rate  : 256 kb/s
    Channel(s)  : 2 channels
    Sampling rate  : 48.0 kHz
    Frame rate  : 41.667 FPS (1152 SPF)
    Compression mode  : Lossy
    Stream size  : 202 MiB (3%)
    Title  : USLT Audio Synced by heroMG
    Language  : Vietnamese
    Default  : No
    Forced  : No
    Audio #4
    ID  : 7
    Format  : AC-3
    Format/Info  : Audio Coding 3
    Commercial name  : Dolby Digital
    Codec ID  : A_AC3
    Duration  : 1 h 50 min
    Bit rate mode  : Constant
    Bit rate  : 640 kb/s
    Channel(s)  : 6 channels
    Channel layout  : L R C LFE Ls Rs
    Sampling rate  : 48.0 kHz
    Frame rate  : 31.250 FPS (1536 SPF)
    Compression mode  : Lossy
    Stream size  : 504 MiB (7%)
    Title  : 5.1 | USLT Audio Synced by heroMG
    Language  : Vietnamese
    Service kind  : Complete Main
    Default  : Yes
    Forced  : No
    Text #1
    ID  : 4
    Format  : PGS
    Muxing mode  : zlib
    Codec ID  : S_HDMV/PGS
    Codec ID/Info  : Picture based subtitle format used on BDs/HD-DVDs
    Duration  : 1 h 49 min
    Bit rate  : 20.7 kb/s
    Count of elements  : 3586
    Stream size  : 16.3 MiB (0%)
    Language  : Chinese
    Default  : Yes
    Forced  : No
    Text #2
    ID  : 5
    Format  : PGS
    Muxing mode  : zlib
    Codec ID  : S_HDMV/PGS
    Codec ID/Info  : Picture based subtitle format used on BDs/HD-DVDs
    Duration  : 1 h 49 min
    Bit rate  : 14.7 kb/s
    Count of elements  : 3586
    Stream size  : 11.5 MiB (0%)
    Language  : English
    Default  : No
    Forced  : No
    Menu
    00:00:00.000  : en:Chapter 01
    00:06:36.437  : en:Chapter 02
    00:12:28.038  : en:Chapter 03
    00:14:34.665  : en:Chapter 04
    00:19:30.127  : en:Chapter 05
    00:25:10.258  : en:Chapter 06
    00:28:49.769  : en:Chapter 07
    00:31:36.769  : en:Chapter 08
    00:37:13.648  : en:Chapter 09
    00:41:48.839  : en:Chapter 10
    00:50:43.707  : en:Chapter 11
    00:54:34.896  : en:Chapter 12
    01:02:09.350  : en:Chapter 13
    01:08:01.952  : en:Chapter 14
    01:12:14.371  : en:Chapter 15
    01:18:27.327  : en:Chapter 16
    01:24:29.189  : en:Chapter 17
    01:33:04.745  : en:Chapter 18
    01:39:00.351  : en:Chapter 19
    01:45:05.549  : en:Chapter 20
    01:50:12.856  : en:Chapter 2
    

    [​IMG]



    [​IMG]

     
    Chỉnh sửa cuối: 18/8/21
  2. Đang tải...


  3. huyhoangbui189

    huyhoangbui189 New Member

    Tham gia ngày:
    25/5/15
    Bài viết:
    21
    Đã được cảm ơn:
    11
    Quá tâm huyết. Cảm ơn bác rất rất nhiều vì những đóng góp này.
     
    upload500 and nguyenthanht2010 like this.
  4. nguyenthanht2010

    nguyenthanht2010 Well-Known Member

    Tham gia ngày:
    25/10/10
    Bài viết:
    1,640
    Đã được cảm ơn:
    1,774
    Giới tính:
    Nam
    Đang up nốt, còn 16 phim nữa chiều nay xong :)
     
    sunnyhuu and anhchangdatinh1107 like this.
  5. mmyem

    mmyem Active Member

    Tham gia ngày:
    16/8/10
    Bài viết:
    296
    Đã được cảm ơn:
    226
    Tưởng tay @ntbzhsc này chỉ xxx nhể o_O
     
  6. Escalante

    Escalante Well-Known Member

    Tham gia ngày:
    5/8/09
    Bài viết:
    1,050
    Đã được cảm ơn:
    941
    Giới tính:
    Nam
    Hoành tráng quá. Cám ơn công sưu tập và remux của bạn. :)
     
  7. bolynu

    bolynu Active Member

    Tham gia ngày:
    31/3/10
    Bài viết:
    922
    Đã được cảm ơn:
    193
    quá phê :D
     
  8. heroMG

    heroMG Member

    Tham gia ngày:
    15/3/09
    Bài viết:
    40
    Đã được cảm ơn:
    36
    chà hàng có vẻ còn hót nhỉ :D ! chạy qua tận HDVN luôn :D. còn 2 phim nữa mới tìm dc source mới, mình sẽ làm nốt cho các bác thưởng thức :D
     
  9. Escalante

    Escalante Well-Known Member

    Tham gia ngày:
    5/8/09
    Bài viết:
    1,050
    Đã được cảm ơn:
    941
    Giới tính:
    Nam
    Full chưa bác ơi?
     
  10. lenamtrung76

    lenamtrung76 Well-Known Member

    Tham gia ngày:
    17/8/10
    Bài viết:
    1,788
    Đã được cảm ơn:
    21,157
    Thực sự nể phục bạn.
    Chỉ có người kinh qua việc sync audio mới hiểu tường tận nó gian truân thế nào.
    Cảm ơn bạn đã chia sẻ.
     
    Windows 8 and heroMG like this.
  11. nguyenthanht2010

    nguyenthanht2010 Well-Known Member

    Tham gia ngày:
    25/10/10
    Bài viết:
    1,640
    Đã được cảm ơn:
    1,774
    Giới tính:
    Nam
    Full rồi bác
     
    Escalante cảm ơn bài này.
  12. Escalante

    Escalante Well-Known Member

    Tham gia ngày:
    5/8/09
    Bài viết:
    1,050
    Đã được cảm ơn:
    941
    Giới tính:
    Nam
    Sorry vì câu hỏi rất chi là siu ly và xì tu pít. Mình coi phim ông này lâu rồi mà hiệt không biết ổng có bao nhiêu phim, lại lm biếng đi check.

    Cám ơn bạn nhiều :)
     
  13. namgshg1009193

    namgshg1009193 New Member

    Tham gia ngày:
    14/2/17
    Bài viết:
    6
    Đã được cảm ơn:
    0
    Giới tính:
    Nam
    Cảm ơn bạn rất nhiều! Quá tâm huyết ! Tuyệt vời bạn ơi!:):):):):)
     
  14. nguyenthanht2010

    nguyenthanht2010 Well-Known Member

    Tham gia ngày:
    25/10/10
    Bài viết:
    1,640
    Đã được cảm ơn:
    1,774
    Giới tính:
    Nam
    thấy có file này lên lun đi bác The King Of Comedy 1999 ViE DUB DVD REMUX MPEG-2 DD5.1-heroMG :)
     
    heroMG cảm ơn bài này.
  15. heroMG

    heroMG Member

    Tham gia ngày:
    15/3/09
    Bài viết:
    40
    Đã được cảm ơn:
    36
    bác kéo về rồi up lên cho mọi người luôn đi, em đang tập trung sync nốt mấy phim còn lại :). Cảm ơn bác !
     
    nguyenthanht2010 cảm ơn bài này.
  16. nguyenthanht2010

    nguyenthanht2010 Well-Known Member

    Tham gia ngày:
    25/10/10
    Bài viết:
    1,640
    Đã được cảm ơn:
    1,774
    Giới tính:
    Nam
    Bác lên nethd đi, 3ct e ko kéo được kkk, thanks bác nhiều nhiều
     
    heroMG cảm ơn bài này.
  17. heroMG

    heroMG Member

    Tham gia ngày:
    15/3/09
    Bài viết:
    40
    Đã được cảm ơn:
    36
    vì quá đam mê anh Tinh nên mới có động lực vậy bác ạ :D. Tặng các bác cùng sở thích :D
     
    nguyenthanht2010 cảm ơn bài này.
  18. nguyenthanht2010

    nguyenthanht2010 Well-Known Member

    Tham gia ngày:
    25/10/10
    Bài viết:
    1,640
    Đã được cảm ơn:
    1,774
    Giới tính:
    Nam
    Update thêm 1 film The.King.Of.Comedy.1999.VIE.DUB.DVD9-USLT
     
    boylak21 cảm ơn bài này.
  19. baongoc2909

    baongoc2909 Well-Known Member

    Tham gia ngày:
    22/1/10
    Bài viết:
    661
    Đã được cảm ơn:
    349
    Cám ơn bạn. Hiện trong folder có 44 film , còn mấy film bạn có lên tiếp không
     
  20. nguyenthanht2010

    nguyenthanht2010 Well-Known Member

    Tham gia ngày:
    25/10/10
    Bài viết:
    1,640
    Đã được cảm ơn:
    1,774
    Giới tính:
    Nam
    Hiện chỉ có bấy nhiêu, úpdate thêm sẹ thông báo nhé
     
  21. baongoc2909

    baongoc2909 Well-Known Member

    Tham gia ngày:
    22/1/10
    Bài viết:
    661
    Đã được cảm ơn:
    349
    Cám ơn bạn nhiều
     

Chia sẻ trang này