[Fshare] [Hành Động | 1link ] Guns and Roses 2012 720p BluRay x264 AC3-HDChina & VAV- Băng Cướp Bông Hồng Sún

Thảo luận trong 'Phim có audio Việt' bắt đầu bởi xemaydinh, 26/10/13.

  1. xemaydinh

    xemaydinh Tem

    Tham gia ngày:
    3/7/10
    Bài viết:
    32,939
    Đã được cảm ơn:
    148,058
    Guns and Roses 2012 720p BluRay x264 AC3-HDChina & VAV


    [​IMG]

    [​IMG]





    Mã:
    General
    Unique ID                                : 188835161074895783915012143671214402228 (0x8E105441A649F143A2348EFF2DCCEAB4)
    
    Format                                   : Matroska
    Format version                           : Version 2
    File size                                : 6.20 GiB
    Duration                                 : 1h 50mn
    Overall bit rate                         : 8 013 Kbps
    Movie name                               : Guns.and.Roses.2012.ViE.720p.BluRay.2Audio.DTS.x264-HDChina&VAV
    Encoded date                             : UTC 2012-07-14 17:37:36
    Writing application                      : mkvmerge v5.7.0 ('The Whirlwind') built on Jul  8 2012 20:08:51
    Writing library                          : libebml v1.2.3 + libmatroska v1.3.0
    
    Video
    ID                                       : 1
    Format                                   : AVC
    Format/Info                              : Advanced Video Codec
    Format profile                           : [email protected]
    Format settings, CABAC                   : Yes
    Format settings, ReFrames                : 11 frames
    Muxing mode                              : Header stripping
    Codec ID                                 : V_MPEG4/ISO/AVC
    Duration                                 : 1h 50mn
    Bit rate                                 : 5 000 Kbps
    Width                                    : 1 280 pixels
    Height                                   : 546 pixels
    Display aspect ratio                     : 2.35:1
    Frame rate mode                          : Constant
    Frame rate                               : 24.000 fps
    Color space                              : YUV
    Chroma subsampling                       : 4:2:0
    Bit depth                                : 8 bits
    Scan type                                : Progressive
    Bits/(Pixel*Frame)                       : 0.298
    Stream size                              : 3.74 GiB (60%)
    Title                                    : Guns and Roses (2012) | VAV | tranvinhhn
    Writing library                          : x264 core 125 r2200 999b753
    Encoding settings                        : cabac=1 / ref=11 / deblock=1:-2:-2 / analyse=0x3:0x113 / me=umh / subme=10 / psy=1 / psy_rd=1.00:0.00 / mixed_ref=1 / me_range=48 / chroma_me=1 / trellis=2 / 8x8dct=1 / cqm=0 / deadzone=21,11 / fast_pskip=0 / chroma_qp_offset=-2 / threads=18 / lookahead_threads=3 / sliced_threads=0 / nr=0 / decimate=0 / interlaced=0 / bluray_compat=0 / constrained_intra=0 / bframes=8 / b_pyramid=2 / b_adapt=2 / b_bias=0 / direct=3 / weightb=1 / open_gop=0 / weightp=2 / keyint=240 / keyint_min=24 / scenecut=40 / intra_refresh=0 / rc_lookahead=240 / rc=2pass / mbtree=1 / bitrate=5000 / ratetol=1.0 / qcomp=0.70 / qpmin=0 / qpmax=69 / qpstep=4 / cplxblur=20.0 / qblur=0.5 / ip_ratio=1.40 / aq=1:0.95
    Language                                 : Chinese
    Default                                  : Yes
    Forced                                   : No
    
    Audio #1
    ID                                       : 2
    Format                                   : DTS
    Format/Info                              : Digital Theater Systems
    Mode                                     : 16
    Format settings, Endianness              : Big
    Muxing mode                              : Header stripping
    Codec ID                                 : A_DTS
    Duration                                 : 1h 50mn
    Bit rate mode                            : Constant
    Bit rate                                 : 1 510 Kbps
    Channel count                            : 6 channels
    Channel positions                        : Front: L C R, Side: L R, LFE
    Sampling rate                            : 48.0 KHz
    Bit depth                                : 24 bits
    Compression mode                         : Lossy
    Stream size                              : 1.17 GiB (19%)
    Title                                    : Vietnamese DTS 5.1 @ 1510 Kbps
    Language                                 : Vietnamese
    Default                                  : Yes
    Forced                                   : No
    
    Audio #2
    ID                                       : 4
    Format                                   : DTS
    Format/Info                              : Digital Theater Systems
    Mode                                     : 16
    Format settings, Endianness              : Big
    Muxing mode                              : Header stripping
    Codec ID                                 : A_DTS
    Duration                                 : 1h 50mn
    Bit rate mode                            : Constant
    Bit rate                                 : 1 510 Kbps
    Channel count                            : 6 channels
    Channel positions                        : Front: L C R, Side: L R, LFE
    Sampling rate                            : 48.0 KHz
    Bit depth                                : 24 bits
    Compression mode                         : Lossy
    Stream size                              : 1.17 GiB (19%)
    Title                                    : Chinese DTS 5.1 @ 1510 Kbps
    Language                                 : Chinese
    Default                                  : No
    Forced                                   : No
    
    Text #1
    ID                                       : 3
    Format                                   : UTF-8
    Codec ID                                 : S_TEXT/UTF8
    Codec ID/Info                            : UTF-8 Plain Text
    Title                                    : English
    Language                                 : English
    Default                                  : Yes
    Forced                                   : No
    
    Text #2
    ID                                       : 5
    Format                                   : UTF-8
    Codec ID                                 : S_TEXT/UTF8
    Codec ID/Info                            : UTF-8 Plain Text
    Title                                    : VAV tranvinhhn info
    Language                                 : Vietnamese
    Default                                  : No
    Forced                                   : No
    
    Menu
    00:00:00.000                             : en:00:00:00.000
    00:09:28.000                             : en:00:09:28.000
    00:17:42.000                             : en:00:17:42.000
    00:28:51.000                             : en:00:28:51.000
    00:36:56.000                             : en:00:36:56.000
    00:43:28.000                             : en:00:43:28.000
    00:52:05.000                             : en:00:52:05.000
    01:00:54.000                             : en:01:00:54.000
    01:08:34.000                             : en:01:08:34.000
    01:17:21.000                             : en:01:17:21.000
    01:23:35.000                             : en:01:23:35.000
    01:33:18.000                             : en:01:33:18.000
    
    


    [​IMG]


    Link tải phim
    Guns and Roses 2012 720p BluRay x264 AC3-HDChina & VAV
    LINK FSHARE
    Nhấn nút Cảm ơn (dưới chân bài) để thấy link!

    OTHER LINK

    LINK TORRENTS

    Phim đã được Mux đầy đủ Audio Eng + Việt | Sub: Eng + Việt trong file MKV


    [ VAV STUDIO ] TỔNG HỢP PHIM HD THUYẾT MINH TIẾNG VIỆT



    [​IMG] [​IMG] [​IMG]



     
    tiiutu, giabachmc, ngocson and 15 others like this.
  2. S379

    S379 Uploader

    Tham gia ngày:
    1/9/13
    Bài viết:
    2,067
    Đã được cảm ơn:
    54,157
    Ðề: [Hành Động | 1link ] Guns and Roses 2012 720p BluRay x264 AC3-HDChina & VAV- Băng Cướp Bông Hồng Súng

    Film đã có VAV STUDIO :D. Thanks nhiệt tình :D
     

Chia sẻ trang này