[Fshare] [Hành Động | 1link ] Haywire 2011 1080p BluRay DTS x264-CtrlHD &VAV (Người đẹp báo thù)

Thảo luận trong 'Phim có audio Việt' bắt đầu bởi xemaydinh, 30/10/13.

  1. xemaydinh

    xemaydinh Tem

    Tham gia ngày:
    3/7/10
    Bài viết:
    32,703
    Đã được cảm ơn:
    145,943
    Haywire 2011 1080p BluRay DTS x264-CtrlHD &VAV


    [​IMG]

    [​IMG]





    Mã:
    General
    Unique ID                                : 171949544052736214137357463692839295998 (0x815C470F949C288EB27985FA5E0D1BFE)
    
    Format                                   : Matroska
    Format version                           : Version 2
    File size                                : 6.83 GiB
    Duration                                 : 1h 32mn
    Overall bit rate                         : 10.5 Mbps
    Movie name                               : Haywire.2011.ViE.1080p.BluRay.2Audio.DTS.x264-CtrlHD&VAV
    Encoded date                             : UTC 2012-08-23 15:24:43
    Writing application                      : mkvmerge v5.7.0 ('The Whirlwind') built on Jul  8 2012 20:08:51
    Writing library                          : libebml v1.2.3 + libmatroska v1.3.0
    
    Video
    ID                                       : 1
    Format                                   : AVC
    Format/Info                              : Advanced Video Codec
    Format profile                           : [email protected]
    Format settings, CABAC                   : Yes
    Format settings, ReFrames                : 5 frames
    Muxing mode                              : Header stripping
    Codec ID                                 : V_MPEG4/ISO/AVC
    Duration                                 : 1h 32mn
    Bit rate                                 : 7 307 Kbps
    Width                                    : 1 920 pixels
    Height                                   : 800 pixels
    Display aspect ratio                     : 2.40:1
    Frame rate mode                          : Constant
    Frame rate                               : 23.976 fps
    Color space                              : YUV
    Chroma subsampling                       : 4:2:0
    Bit depth                                : 8 bits
    Scan type                                : Progressive
    Bits/(Pixel*Frame)                       : 0.198
    Stream size                              : 4.74 GiB (69%)
    Title                                    : Haywire (2011) | VAV | tranvinhhn
    Writing library                          : x264 core 122 r2184 5c85e0a
    Encoding settings                        : cabac=1 / ref=5 / deblock=1:-3:-3 / analyse=0x3:0x113 / me=umh / subme=11 / psy=1 / psy_rd=1.20:0.00 / mixed_ref=1 / me_range=16 / chroma_me=1 / trellis=2 / 8x8dct=1 / cqm=0 / deadzone=21,11 / fast_pskip=0 / chroma_qp_offset=-2 / threads=6 / sliced_threads=0 / nr=0 / decimate=0 / interlaced=0 / bluray_compat=0 / constrained_intra=0 / bframes=8 / b_pyramid=2 / b_adapt=2 / b_bias=0 / direct=3 / weightb=1 / open_gop=0 / weightp=2 / keyint=250 / keyint_min=23 / scenecut=40 / intra_refresh=0 / rc_lookahead=40 / rc=crf / mbtree=1 / crf=18.0 / qcomp=0.85 / qpmin=0 / qpmax=69 / qpstep=4 / ip_ratio=1.30 / aq=1:0.70
    Language                                 : English
    Default                                  : Yes
    Forced                                   : No
    
    Audio #1
    ID                                       : 2
    Format                                   : DTS
    Format/Info                              : Digital Theater Systems
    Mode                                     : 16
    Format settings, Endianness              : Big
    Muxing mode                              : Header stripping
    Codec ID                                 : A_DTS
    Duration                                 : 1h 32mn
    Bit rate mode                            : Constant
    Bit rate                                 : 1 510 Kbps
    Channel count                            : 6 channels
    Channel positions                        : Front: L C R, Side: L R, LFE
    Sampling rate                            : 48.0 KHz
    Bit depth                                : 24 bits
    Compression mode                         : Lossy
    Stream size                              : 1 003 MiB (14%)
    Title                                    : Vietnamese DTS 5.1 @ 1510 Kbps
    Language                                 : Vietnamese
    Default                                  : Yes
    Forced                                   : No
    
    Audio #2
    ID                                       : 5
    Format                                   : DTS
    Format/Info                              : Digital Theater Systems
    Mode                                     : 16
    Format settings, Endianness              : Big
    Muxing mode                              : Header stripping
    Codec ID                                 : A_DTS
    Duration                                 : 1h 32mn
    Bit rate mode                            : Constant
    Bit rate                                 : 1 509 Kbps
    Channel count                            : 6 channels
    Channel positions                        : Front: L C R, Side: L R, LFE
    Sampling rate                            : 48.0 KHz
    Bit depth                                : 24 bits
    Compression mode                         : Lossy
    Stream size                              : 1 002 MiB (14%)
    Title                                    : English DTS 5.1 @ 1510 Kbps
    Language                                 : English
    Default                                  : No
    Forced                                   : No
    
    Text #1
    ID                                       : 3
    Format                                   : UTF-8
    Codec ID                                 : S_TEXT/UTF8
    Codec ID/Info                            : UTF-8 Plain Text
    Title                                    : VAV tranvinhhn info
    Language                                 : French
    Default                                  : Yes
    Forced                                   : No
    
    Text #2
    ID                                       : 4
    Format                                   : UTF-8
    Codec ID                                 : S_TEXT/UTF8
    Codec ID/Info                            : UTF-8 Plain Text
    Title                                    : English
    Language                                 : English
    Default                                  : No
    Forced                                   : No
    
    Text #3
    ID                                       : 6
    Format                                   : UTF-8
    Codec ID                                 : S_TEXT/UTF8
    Codec ID/Info                            : UTF-8 Plain Text
    Title                                    : Vietnamese
    Language                                 : Vietnamese
    Default                                  : No
    Forced                                   : No
    
    Menu
    00:00:00.000                             : en:00:00:00.000
    00:07:14.684                             : en:00:07:14.684
    00:12:07.477                             : en:00:12:07.477
    00:20:05.538                             : en:00:20:05.538
    00:24:06.737                             : en:00:24:06.737
    00:30:00.173                             : en:00:30:00.173
    00:38:16.878                             : en:00:38:16.878
    00:43:34.278                             : en:00:43:34.278
    00:47:58.751                             : en:00:47:58.751
    00:54:29.308                             : en:00:54:29.308
    00:58:55.490                             : en:00:58:55.490
    01:05:55.285                             : en:01:05:55.285
    01:10:12.708                             : en:01:10:12.708
    01:16:10.649                             : en:01:16:10.649
    01:21:51.448                             : en:01:21:51.448
    01:25:16.028                             : en:01:25:16.028
    
    




    Link tải phim
    Haywire 2011 1080p BluRay DTS x264-CtrlHD &VAV
    LINK FSHARE
    Nhấn nút Cảm ơn (dưới chân bài) để thấy link!

    OTHER LINK

    LINK TORRENTS

    Phim đã được Mux đầy đủ Audio Eng + Việt | Sub: Eng + Việt trong file MKV


    [ VAV STUDIO ] TỔNG HỢP PHIM HD THUYẾT MINH TIẾNG VIỆT



    [​IMG] [​IMG] [​IMG]



     
  2. Đang tải...


  3. lackienbinh

    lackienbinh Well-Known Member

    Tham gia ngày:
    27/10/11
    Bài viết:
    979
    Đã được cảm ơn:
    109
    Nghề nghiệp:
    Engineer
    Nơi ở:
    TP.HCM, Việt Nam
    Ðề: [Hành Động | 1link ] Haywire 2011 1080p BluRay DTS x264-CtrlHD &VAV (Người đẹp báo thù)

    Úi, lại còn 1080p BluRay nữa chứ! Thanks nè...
     
  4. S379

    S379 Uploader

    Tham gia ngày:
    1/9/13
    Bài viết:
    2,067
    Đã được cảm ơn:
    53,852
    Ðề: [Hành Động | 1link ] Haywire 2011 1080p BluRay DTS x264-CtrlHD &VAV (Người đẹp báo thù)

    HDD dung lượng cao với mạng khủng lên bạn thích 1080p nhỉ .:D. Thanks Audio VAV liên tục up film có Audio cho anh em .
     
  5. nvqhaiduong

    nvqhaiduong Well-Known Member

    Tham gia ngày:
    27/1/11
    Bài viết:
    6,023
    Đã được cảm ơn:
    17,277
    Giới tính:
    Nam
    Nơi ở:
    Lossless Box
    Ðề: [Hành Động | 1link ] Haywire 2011 1080p BluRay DTS x264-CtrlHD &VAV (Người đẹp báo thù)

    Ủng hộ hàng thuyết minh do bác úp, kéo về cho gấu xem vì lười đọc sub (tất nhiên là mình cũng phải xem cùng:D)
     
  6. lackienbinh

    lackienbinh Well-Known Member

    Tham gia ngày:
    27/10/11
    Bài viết:
    979
    Đã được cảm ơn:
    109
    Nghề nghiệp:
    Engineer
    Nơi ở:
    TP.HCM, Việt Nam
    Ðề: [Hành Động | 1link ] Haywire 2011 1080p BluRay DTS x264-CtrlHD &VAV (Người đẹp báo thù)

    BluRay gốc thì mình chịu ko nổi, chứ 1080p thì cũng ráng ráng đu đeo chút... hjhj:)
     
  7. 0203

    0203 New Member

    Tham gia ngày:
    17/4/10
    Bài viết:
    1,584
    Đã được cảm ơn:
    161
    Ðề: [Hành Động | 1link ] Haywire 2011 1080p BluRay DTS x264-CtrlHD &VAV (Người đẹp báo thù)

    Có đoạn giới thiệu này hấp dẫn đây: "Tuy nhiên, kịch bản phim này phát triển khá phức tạp. Tính cách và thân phận mỗi nhân vật, nội tình bên trong vụ án không bao giờ được hé lộ cụ thể. Khán giả luôn phải kiên nhẫn, tập trung theo dõi, lắp ghép các đường dây câu chuyện, các tuyến nhân vật mờ ám khác nhau thì mới hiểu rõ toàn bộ nội dung phim. "
    Xem nhiều phim hành động quá rồi, phim nào đầu óc một tí mới khoái, :D.
     

Chia sẻ trang này