[Fshare] [Hành Động | 1link ] Iron Sky (2012) 720p BluRay DTS x264-EbP & VAV -Bầu Trời Sắt

Thảo luận trong 'Phim có audio Việt' bắt đầu bởi xemaydinh, 4/11/13.

  1. xemaydinh

    xemaydinh Tem

    Tham gia ngày:
    3/7/10
    Bài viết:
    32,704
    Đã được cảm ơn:
    145,953
    Iron Sky (2012) 720p BluRay DTS x264-EbP & VAV


    [​IMG]

    [​IMG]





    Mã:
    General
    Unique ID                                : 210804482006460839881041646705352851970 (0x9E9777680113FA5FBCCECF3420234202)
    Format                                   : Matroska
    Format version                           : Version 2
    File size                                : 4.21 GiB
    Duration                                 : 1h 32mn
    Overall bit rate                         : 6 517 Kbps
    Movie name                               : Iron.Sky.2012.ViE.720p.BluRay.2Audio.DTS.x264-EbP&VAV
    Encoded date                             : UTC 2012-07-15 16:08:00
    Writing application                      : mkvmerge v5.7.0 ('The Whirlwind') built on Jul  8 2012 20:08:51
    Writing library                          : libebml v1.2.3 + libmatroska v1.3.0
    
    Video
    ID                                       : 1
    Format                                   : AVC
    Format/Info                              : Advanced Video Codec
    Format profile                           : [email protected]
    Format settings, CABAC                   : Yes
    Format settings, ReFrames                : 9 frames
    Muxing mode                              : Header stripping
    Codec ID                                 : V_MPEG4/ISO/AVC
    Duration                                 : 1h 32mn
    Bit rate                                 : 3 500 Kbps
    Width                                    : 1 280 pixels
    Height                                   : 544 pixels
    Display aspect ratio                     : 2.35:1
    Frame rate mode                          : Constant
    Frame rate                               : 24.000 fps
    Color space                              : YUV
    Chroma subsampling                       : 4:2:0
    Bit depth                                : 8 bits
    Scan type                                : Progressive
    Bits/(Pixel*Frame)                       : 0.209
    Stream size                              : 2.18 GiB (52%)
    Title                                    : Iron Sky (2012) | VAV | tranvinhhn
    Writing library                          : x264 core 125 r2200 999b753
    Encoding settings                        : cabac=1 / ref=9 / deblock=1:-3:-3 / analyse=0x3:0x133 / me=tesa / subme=10 / psy=1 / psy_rd=1.20:0.00 / mixed_ref=1 / me_range=16 / chroma_me=1 / trellis=2 / 8x8dct=1 / cqm=0 / deadzone=21,11 / fast_pskip=0 / chroma_qp_offset=-2 / threads=18 / lookahead_threads=3 / sliced_threads=0 / nr=0 / decimate=0 / interlaced=0 / bluray_compat=0 / constrained_intra=0 / bframes=9 / b_pyramid=2 / b_adapt=2 / b_bias=0 / direct=3 / weightb=1 / open_gop=0 / weightp=2 / keyint=240 / keyint_min=24 / scenecut=40 / intra_refresh=0 / rc_lookahead=80 / rc=2pass / mbtree=1 / bitrate=3500 / ratetol=1.0 / qcomp=0.60 / qpmin=0 / qpmax=69 / qpstep=4 / cplxblur=20.0 / qblur=0.5 / ip_ratio=1.40 / aq=2:0.60
    Language                                 : English
    Default                                  : Yes
    Forced                                   : No
    
    Audio #1
    ID                                       : 2
    Format                                   : DTS
    Format/Info                              : Digital Theater Systems
    Mode                                     : 16
    Format settings, Endianness              : Big
    Muxing mode                              : Header stripping
    Codec ID                                 : A_DTS
    Duration                                 : 1h 32mn
    Bit rate mode                            : Constant
    Bit rate                                 : 1 510 Kbps
    Channel count                            : 6 channels
    Channel positions                        : Front: L C R, Side: L R, LFE
    Sampling rate                            : 48.0 KHz
    Bit depth                                : 24 bits
    Compression mode                         : Lossy
    Stream size                              : 999 MiB (23%)
    Title                                    : Vietnamese DTS 5.1 @ 1510 Kbps
    Language                                 : Vietnamese
    Default                                  : Yes
    Forced                                   : No
    
    Audio #2
    ID                                       : 4
    Format                                   : DTS
    Format/Info                              : Digital Theater Systems
    Mode                                     : 16
    Format settings, Endianness              : Big
    Muxing mode                              : Header stripping
    Codec ID                                 : A_DTS
    Duration                                 : 1h 32mn
    Bit rate mode                            : Constant
    Bit rate                                 : 1 510 Kbps
    Channel count                            : 6 channels
    Channel positions                        : Front: L C R, Side: L R, LFE
    Sampling rate                            : 48.0 KHz
    Bit depth                                : 24 bits
    Compression mode                         : Lossy
    Stream size                              : 999 MiB (23%)
    Title                                    : English DTS 5.1 @ 1510 Kbps
    Language                                 : English
    Default                                  : No
    Forced                                   : No
    
    Text #1
    ID                                       : 3
    Format                                   : UTF-8
    Codec ID                                 : S_TEXT/UTF8
    Codec ID/Info                            : UTF-8 Plain Text
    Title                                    : English
    Language                                 : English
    Default                                  : Yes
    Forced                                   : No
    
    Text #2
    ID                                       : 5
    Format                                   : UTF-8
    Codec ID                                 : S_TEXT/UTF8
    Codec ID/Info                            : UTF-8 Plain Text
    Title                                    : VAV tranvinhhn info
    Language                                 : Vietnamese
    Default                                  : No
    Forced                                   : No
    
    Menu
    00:00:00.000                             : en:00:00:00.000
    00:11:36.417                             : en:00:11:36.417
    00:23:03.000                             : en:00:23:03.000
    00:31:32.083                             : en:00:31:32.083
    00:44:23.375                             : en:00:44:23.375
    00:53:33.583                             : en:00:53:33.583
    01:05:26.167                             : en:01:05:26.167
    01:13:33.708                             : en:01:13:33.708
    01:17:51.042                             : en:01:17:51.042
    01:24:42.417                             : en:01:24:42.417
    
    


    [​IMG]


    [​IMG] [​IMG]
    [​IMG] [​IMG]

    Link tải phim
    Iron Sky (2012) 720p BluRay DTS x264-EbP & VAV
    LINK FSHARE
    Nhấn nút Cảm ơn (dưới chân bài) để thấy link!

    OTHER LINK

    LINK TORRENTS

    Phim đã được Mux đầy đủ Audio Eng + Việt | Sub: Eng + Việt trong file MKV


    [ VAV STUDIO ] TỔNG HỢP PHIM HD THUYẾT MINH TIẾNG VIỆT



    [​IMG] [​IMG] [​IMG]



     
  2. Đang tải...


  3. S379

    S379 Uploader

    Tham gia ngày:
    1/9/13
    Bài viết:
    2,067
    Đã được cảm ơn:
    53,853
    Ðề: [Hành Động | 1link ] Iron Sky (2012) 720p BluRay DTS x264-EbP & VAV -Bầu Trời Sắt

    Chuân bị đầu tư thêm HDD mới theo kịp film AUDIO của VAV :D . Thanks bạn
     
  4. nhoc_romeo

    nhoc_romeo Well-Known Member

    Tham gia ngày:
    22/8/09
    Bài viết:
    1,264
    Đã được cảm ơn:
    194
    Ðề: [Hành Động | 1link ] Iron Sky (2012) 720p BluRay DTS x264-EbP & VAV -Bầu Trời Sắt

    Bác atn này đi đâu mình cũng gặp :))
     
  5. S379

    S379 Uploader

    Tham gia ngày:
    1/9/13
    Bài viết:
    2,067
    Đã được cảm ơn:
    53,853
    Ðề: [Hành Động | 1link ] Iron Sky (2012) 720p BluRay DTS x264-EbP & VAV -Bầu Trời Sắt

    Lỡ nghiện ngập AUDIO VAV rồi bạn ơi =))
     

Chia sẻ trang này