[Hành Động | All Versions 720P ( CHD, AXED ) | 1 link ] Freezer 2013 720p BluRay AC3 x264- Dylan McD

Thảo luận trong 'Fshare.vn' bắt đầu bởi ledung123, 31/12/13.

  1. ledung123

    ledung123 Về Hưu

    Tham gia ngày:
    31/10/08
    Bài viết:
    27,649
    Đã được cảm ơn:
    53,714

    Freezer.2013.720p.BluRay.AC3-5.1.x264 ( All Versions )


    [​IMG]




    [video=youtube;BCIdVd3UH5s]http://www.youtube.com/watch?v=BCIdVd3UH5s[/video]

    Bản 720P ( CHD )

    http://www.hdvietnam.com/diendan/33...h-dong-all-versions-720p-chd.html#post6610131

    Bản 720P ( AXED )

    http://www.hdvietnam.com/diendan/33...h-dong-all-versions-720p-chd.html#post6609425
     
    Chỉnh sửa cuối: 8/1/14
  2. ledung123

    ledung123 Về Hưu

    Tham gia ngày:
    31/10/08
    Bài viết:
    27,649
    Đã được cảm ơn:
    53,714
    Freezer 2013 720p BluRay AC3 x264-AXED - Dylan McDermott, Peter Facinelli, Yuliya Snigir


    Freezer.2013.720p.BluRay.AC3-5.1.x264-AXED


    [​IMG]

    Mã:
    [color="Blue"]  
    (  ___  )|\     /|(  ____ \(  __  \
    | (   ) |( \   / )| (    \/| (  \  )
    | (___) | \ (_) / | (__    | |   ) |
    |  ___  |  ) _ (  |  __)   | |   | |
    | (   ) | / ( ) \ | (      | |   ) |
    | )   ( |( /   \ )| (____/\| (__/  )
    |/     \||/     \|(_______/(______/
      _    _    _    _    _    _    _    _  
     / \  / \  / \  / \  / \  / \  / \  / \
    ( p )( r )( e )( s )( e )( n )( t )( s )
     \_/  \_/  \_/  \_/  \_/  \_/  \_/  \_/
     
    Freezer.2013.720p.BluRay.AC3-5.1.x264-AXED
     
    IMDB:
    http://www.imdb.com/title/tt2325002
     
    PLOT INFO:
    Robert is an ordinary man who is faced with extraordinary circumstances. He is locked in a meat freezer by Russian thugs who believe that he owes them 8 million dollars. Robert, who is in ...
     
    Media Info:
    General
    Unique ID                                : 245828017564132876189888024840324267788 (0xB8F0C1076DE3E0F59DDA1587EB943F0C)
    Complete name                            : Freezer.2013.720p.BluRay.AC3-5.1.x264-AXED.mkv
    Format                                   : Matroska
    Format version                           : Version 2
    File size                                : 3.39 GiB
    Duration                                 : 1h 22mn
    Overall bit rate                         : 5 908 Kbps
    Encoded date                             : UTC 2013-12-29 17:28:29
    Writing application                      : mkvmerge v4.0.0 ('The Stars were mine') built on Jun  6 2010 16:18:42
    Writing library                          : libebml v1.0.0 + libmatroska v1.0.0
     
    Video
    ID                                       : 1
    Format                                   : AVC
    Format/Info                              : Advanced Video Codec
    Format profile                           : [email protected]
    Format settings, CABAC                   : Yes
    Format settings, ReFrames                : 9 frames
    Codec ID                                 : V_MPEG4/ISO/AVC
    Duration                                 : 1h 22mn
    Bit rate                                 : 5 150 Kbps
    Width                                    : 1 280 pixels
    Height                                   : 544 pixels
    Display aspect ratio                     : 2.35:1
    Frame rate mode                          : Constant
    Frame rate                               : 23.976 fps
    Color space                              : YUV
    Chroma subsampling                       : 4:2:0
    Bit depth                                : 8 bits
    Scan type                                : Progressive
    Bits/(Pixel*Frame)                       : 0.308
    Stream size                              : 2.96 GiB (87%)
    Writing library                          : x264 core 68 r1195bm 5d75a9b
    Encoding settings                        : cabac=1 / ref=9 / deblock=1:-1:-1 / analyse=0x3:0x113 / me=umh / subme=7 / psy_rd=0.0:2.0 / mixed_ref=1 / me_range=16 / chroma_me=1 / trellis=2 / 8x8dct=1 / cqm=0 / deadzone=21,11 / chroma_qp_offset=-2 / threads=1 / thread_queue=1 / nr=0 / decimate=1 / mbaff=0 / bframes=6 / b_pyramid=0 / b_adapt=1 / b_bias=0 / direct=1 / wpredb=1 / keyint=250 / keyint_min=25 / scenecut=40 / rc=crf / crf=16.0 / qcomp=0.60 / qpmin=10 / qpmax=51 / qpstep=4 / ip_ratio=1.40 / pb_ratio=1.30 / aq=2:1.00
    Default                                  : Yes
    Forced                                   : No
     
    Audio
    ID                                       : 2
    Format                                   : AC-3
    Format/Info                              : Audio Coding 3
    Mode extension                           : CM (complete main)
    Format settings, Endianness              : Big
    Codec ID                                 : A_AC3
    Duration                                 : 1h 22mn
    Bit rate mode                            : Constant
    Bit rate                                 : 640 Kbps
    Channel(s)                               : 6 channels
    Channel positions                        : Front: L C R, Side: L R, LFE
    Sampling rate                            : 48.0 KHz
    Bit depth                                : 16 bits
    Compression mode                         : Lossy
    Stream size                              : 376 MiB (11%)
    Default                                  : Yes
    Forced                                   : No
     
     
     
    SOURCE:
    Retail RA Blu-Ray DISC
     
    NOTES:
    Here's a 720p x264 encode of this new thriller starring Dylan McDermott & Peter Facinelli for those waiting on HD.
     
    AXED! We are this.
    [/color]



    [​IMG]

    [​IMG]

    [​IMG]

    [​IMG]

    [​IMG]

    1 link 3.39 GB
    Nhấn nút Cảm ơn (dưới chân bài) để thấy link!


    [video=youtube;BCIdVd3UH5s]http://www.youtube.com/watch?v=BCIdVd3UH5s[/video]
     
    fsvnhd cảm ơn bài này.
  3. ledung123

    ledung123 Về Hưu

    Tham gia ngày:
    31/10/08
    Bài viết:
    27,649
    Đã được cảm ơn:
    53,714
    Freezer 2014 BluRay 720p AC3 x264-CHD - Dylan McDermott, Peter Facinelli, Yuliya Snigir


    Freezer 2014 BluRay 720p AC3 x264-CHD


    [​IMG]

    Mã:
    [color="Blue"]  
    Robert is an ordinary man who is faced with extraordinary circumstances. He is locked in a meat freezer by Russian thugs who believe that he owes them 8 million dollars. Robert, who is in ...
    Movie:Freezer
    Release Group: CHD
    Release Name: Freezer 2014 BluRay 720p AC3 x264
    Resolution: 1 280 pixels x 536 pixels
    Runtime: 1h 22mn
    Video: V_MPEG4/ISO/AVC | 5 464 Kbps
    Size: 3.50GB
    Genre: Action, Thriller
     
    [/color]



    [​IMG]

    [​IMG]

    [​IMG]

    [​IMG]

    [​IMG]

    1 link 3.49 GB
    Nhấn nút Cảm ơn (dưới chân bài) để thấy link!


    [video=youtube;BCIdVd3UH5s]http://www.youtube.com/watch?v=BCIdVd3UH5s[/video]
     
    fsvnhd cảm ơn bài này.
  4. Hamelio Musica

    Hamelio Musica Active Member

    Tham gia ngày:
    13/6/12
    Bài viết:
    405
    Đã được cảm ơn:
    177
    Ðề: [Hành Động | All Versions 720P ( CHD, AXED ) | 1 link ] Freezer 2013 720p BluRay AC3 x264- Dylan McDermott, Peter Facinelli, Yuliya Snigir

    Update sub việt: Freezer 2014 - HomeSub.vn
     
  5. hotboy1984

    hotboy1984 Member

    Tham gia ngày:
    5/8/13
    Bài viết:
    57
    Đã được cảm ơn:
    7
    Ðề: [Hành Động | All Versions 720P ( CHD, AXED ) | 1 link ] Freezer 2013 720p BluRay AC3 x264- Dylan McDermott, Peter Facinelli, Yuliya Snigir

    Phim này chắc hay đây. Thank bác
     

Chia sẻ trang này