[Hành động] Baaghi 2 (2018) Untouched 1080p WEB-DL x264 AAC Vietsub ~ Trả thù 2

Thảo luận trong 'Fshare.vn' bắt đầu bởi hatieupro7, 17/9/18.

  1. hatieupro7

    hatieupro7 Well-Known Member

    Tham gia ngày:
    26/9/10
    Bài viết:
    364
    Đã được cảm ơn:
    2,900
    Giới tính:
    Nam
    Nghề nghiệp:
    OSIN
    Nơi ở:
    Haiphong city
    BAAGHI 2 (2018)
    TRẢ THÙ 2
    IMDB: https://www.imdb.com/title/tt6843812/


    [​IMG]

    TRAILER


    SCREENSHOTS
    https://i.imgur.com/dtB6ptW.jpg
    [​IMG]



    NỘI DUNG

    Mã:
    Complete name               : C:\Users\HaTieu\Videos\Baaghi 2 (2018) Untouched 1080p WEB-DL x264 AAC Esub - Hon3yHD.mkv
    Format                      : Matroska
    Format version              : Version 4 / Version 2
    File size                   : 4.27 GiB
    Duration                    : 2 h 14 min
    Overall bit rate            : 4 547 kb/s
    Encoded date                : UTC 2018-06-11 02:49:20
    Writing application         : mkvmerge v23.0.0 ('The Bride Said No') 64-bit
    Writing library             : libebml v1.3.6 + libmatroska v1.4.9
    Video
    ID                          : 1
    Format                      : AVC
    Format/Info                 : Advanced Video Codec
    Format profile              : [email protected]
    Format settings, CABAC      : Yes
    Format settings, ReFrames   : 1 frame
    Format settings, GOP        : M=1, N=25
    Codec ID                    : V_MPEG4/ISO/AVC
    Duration                    : 2 h 14 min
    Bit rate mode               : Constant
    Bit rate                    : 4 500 kb/s
    Width                       : 1 920 pixels
    Height                      : 1 080 pixels
    Display aspect ratio        : 16:9
    Frame rate mode             : Constant
    Frame rate                  : 25.000 FPS
    Color space                 : YUV
    Chroma subsampling          : 4:2:0
    Bit depth                   : 8 bits
    Scan type                   : Progressive
    Bits/(Pixel*Frame)          : 0.087
    Stream size                 : 4.21 GiB (99%)
    Title                       : Hon3yHD
    Default                     : Yes
    Forced                      : No
    Audio
    ID                          : 2
    Format                      : AAC
    Format/Info                 : Advanced Audio Codec
    Format profile              : LC
    Codec ID                    : A_AAC
    Duration                    : 2 h 14 min
    Bit rate                    : 61.4 kb/s
    Channel(s)                  : 2 channels
    Channel positions           : Front: L R
    Sampling rate               : 48.0 kHz
    Frame rate                  : 46.875 FPS (1024 spf)
    Compression mode            : Lossy
    Stream size                 : 59.1 MiB (1%)
    Title                       : Hindi - Hon3yHD
    Language                    : Hindi
    Default                     : Yes
    Forced                      : No
    Text
    ID                          : 3
    Format                      : UTF-8
    Codec ID                    : S_TEXT/UTF8
    Codec ID/Info               : UTF-8 Plain Text
    Duration                    : 2 h 11 min
    Bit rate                    : 59 b/s
    Count of elements           : 1833
    Stream size                 : 56.9 KiB (0%)
    Title                       : Esub
    Language                    : English
    Default                     : Yes
    Forced                      : No
    


    LINK DOWNLOAD


    Nhấn nút Cảm ơn (dưới chân bài) để thấy link!


    VIETSUB BY BMV.Team
    Nhấn nút Cảm ơn (dưới chân bài) để thấy link!


    Chúc các bạn xem phim vui vẻ!
    #BMV.Team
    #Bollyw00ds
    #hatieupro
     
    Chỉnh sửa cuối: 28/2/20
  2. Đang tải...


  3. hatieupro7

    hatieupro7 Well-Known Member

    Tham gia ngày:
    26/9/10
    Bài viết:
    364
    Đã được cảm ơn:
    2,900
    Giới tính:
    Nam
    Nghề nghiệp:
    OSIN
    Nơi ở:
    Haiphong city
    Giờ mới biết phần 1 phim này tên Giải cứu mỹ nhân :d
     
  4. gprsmms

    gprsmms Well-Known Member

    Tham gia ngày:
    27/4/10
    Bài viết:
    2,518
    Đã được cảm ơn:
    326
    Giới tính:
    Nam
    thanks
     
    phuochongdat cảm ơn bài này.
  5. hiepmu

    hiepmu Well-Known Member

    Tham gia ngày:
    20/12/09
    Bài viết:
    1,195
    Đã được cảm ơn:
    469
    coi trailer thấy đánh đấm ảo vl :D
     
    doquangbo cảm ơn bài này.
  6. cybersoft

    cybersoft Active Member

    Tham gia ngày:
    5/10/09
    Bài viết:
    629
    Đã được cảm ơn:
    35
    Link die ròi bác chủ ơi.,
     
  7. doquangbo

    doquangbo Active Member

    Tham gia ngày:
    7/6/10
    Bài viết:
    165
    Đã được cảm ơn:
    85
    phim Ấn thì múa hát thôi rồi...quay chậm hình giật giật các kiểu..
     
  8. hatieupro7

    hatieupro7 Well-Known Member

    Tham gia ngày:
    26/9/10
    Bài viết:
    364
    Đã được cảm ơn:
    2,900
    Giới tính:
    Nam
    Nghề nghiệp:
    OSIN
    Nơi ở:
    Haiphong city
    Để mình up lại nhé, nick fshare mình ko phải acc vip nên lâu ko ai down nó tự xóa
     
    luan nguyen cảm ơn bài này.
  9. luan nguyen

    luan nguyen Active Member

    Tham gia ngày:
    29/12/09
    Bài viết:
    365
    Đã được cảm ơn:
    196
    HÔM NAY ĐANG DOWN XIN CÁM ƠN
     
  10. hatieupro7

    hatieupro7 Well-Known Member

    Tham gia ngày:
    26/9/10
    Bài viết:
    364
    Đã được cảm ơn:
    2,900
    Giới tính:
    Nam
    Nghề nghiệp:
    OSIN
    Nơi ở:
    Haiphong city
    Đã update link rồi đó ạ
     
    doquangbo cảm ơn bài này.
  11. hiepmu

    hiepmu Well-Known Member

    Tham gia ngày:
    20/12/09
    Bài viết:
    1,195
    Đã được cảm ơn:
    469
    dek, phim Ấn Độ mình chỉ thích được mỗi phim "Dear Zindagi", phin hay ghê luôn, đã thế gái chính đẹp v~ cả lone :D
     
  12. hatieupro7

    hatieupro7 Well-Known Member

    Tham gia ngày:
    26/9/10
    Bài viết:
    364
    Đã được cảm ơn:
    2,900
    Giới tính:
    Nam
    Nghề nghiệp:
    OSIN
    Nơi ở:
    Haiphong city
    Uầy, Dear Zindagi mình dịch đó. Nữ chính là Alia Bhatt, mình cũng dịch gần chục phim em ý đóng ấy :D
     
    hiepmu cảm ơn bài này.
  13. hiepmu

    hiepmu Well-Known Member

    Tham gia ngày:
    20/12/09
    Bài viết:
    1,195
    Đã được cảm ơn:
    469
    cho mình xin link phụ đề phim em này đóng của bác dịch đi kkkkk
     
  14. hoang_thuy

    hoang_thuy Huyền Thoại

    Tham gia ngày:
    10/6/09
    Bài viết:
    2,534
    Đã được cảm ơn:
    7,237
    Hà Tiêu, còn thiếu nợ bên box phim tài liệu đấy nhé ;).
     
    hatieupro7 cảm ơn bài này.
  15. hatieupro7

    hatieupro7 Well-Known Member

    Tham gia ngày:
    26/9/10
    Bài viết:
    364
    Đã được cảm ơn:
    2,900
    Giới tính:
    Nam
    Nghề nghiệp:
    OSIN
    Nơi ở:
    Haiphong city
    Á, em vẫn nhớ là thiếu 3 eps, mà không nhớ phim gì bác ạ :((( hồi đó chưa về VN, mất hết rồi bác ạ
     
  16. hoang_thuy

    hoang_thuy Huyền Thoại

    Tham gia ngày:
    10/6/09
    Bài viết:
    2,534
    Đã được cảm ơn:
    7,237
    Nói chơi vậy thôi, mọi người đã tự khắc phục rồi, cứ vui duyên mới đi, khỏe nhé.
     
  17. hatieupro7

    hatieupro7 Well-Known Member

    Tham gia ngày:
    26/9/10
    Bài viết:
    364
    Đã được cảm ơn:
    2,900
    Giới tính:
    Nam
    Nghề nghiệp:
    OSIN
    Nơi ở:
    Haiphong city
    Bác vào imdb search Alia Bhatt, sẽ thấy 1 list phim có ẻm đóng :p
     
    hiepmu cảm ơn bài này.
  18. hatieupro7

    hatieupro7 Well-Known Member

    Tham gia ngày:
    26/9/10
    Bài viết:
    364
    Đã được cảm ơn:
    2,900
    Giới tính:
    Nam
    Nghề nghiệp:
    OSIN
    Nơi ở:
    Haiphong city
    Baaghi 3 sắp công chiếu vào 06/03/2020 với những pha đánh đấm ảo lòi của main :v
     
  19. Behe

    Behe Active Member

    Tham gia ngày:
    17/7/10
    Bài viết:
    232
    Đã được cảm ơn:
    51
    Coi Trailer phim này xong chắc hỏng ai thèm xem luôn!!!
     
    hatieupro7 cảm ơn bài này.

Chia sẻ trang này