[Hành động] Doors 2021 720p BluRay x264 DTS-Cánh Cửa

Thảo luận trong '4share.vn' bắt đầu bởi xemaydinh, 25/10/21.

  1. xemaydinh

    xemaydinh Tem

    Tham gia ngày:
    3/7/10
    Bài viết:
    31,464
    Đã được cảm ơn:
    141,617
    Doors 2021 720p BluRay x264 DTS-FGT
    Cánh Cửa
    [​IMG]



    Doors (2021) là bộ phim thuộc thể loại khoa học, viễn tưởng, có thời lượng 81 phút do đạo diễn Jeff Desom , Saman Kesh sản xuất và các diễn viên tham gia như Lina Esco , Wilson Bethel , Josh Peck,... Nội dung phim Doors (2021) xoay quanh câu chuyện không hề báo trước, hàng triệu cánh cửa bí ẩn của người ngoài hành tinh bất ngờ xuất hiện trên khắp địa cầu. Trong thời gian gấp rút để tìm ra và xác định lý do thực sự cho sự xuất hiện của họ., cả nhân loại phải làm việc cùng nhau để hiểu mục đích của những dị thường vũ trụ này. Những sự cố kì lạ, bí ẩn luôn xảy ra xung quanh các cánh cửa có tri giác khiên nhân loại đặt câu hỏi về sự tồn tại của chính họ và một thực tại đã bị thay đổi khi họ cố gắng bước vào chúng.


    Video
    ID : 1
    Format : AVC
    Format/Info : Advanced Video Codec
    Format profile : [email protected]
    Format settings : CABAC / 4 Ref Frames
    Format settings, CABAC : Yes
    Format settings, Reference frames : 4 frames
    Codec ID : V_MPEG4/ISO/AVC
    Duration : 1 h 24 min
    Bit rate : 5 500 kb/s
    Width : 1 280 pixels
    Height : 544 pixels
    Display aspect ratio : 2.35:1
    Frame rate mode : Constant
    Frame rate : 23.976 (24000/1001) FPS
    Color space : YUV
    Chroma subsampling : 4:2:0
    Bit depth : 8 bits
    Scan type : Progressive
    Bits/(Pixel*Frame) : 0.329
    Stream size : 3.23 GiB (78%)
    Writing library : x264 core 148 r2748 97eaef2
    Encoding settings : cabac=1 / ref=4 / deblock=1:-2:-2 / analyse=0x3:0x113 / me=umh / subme=9 / psy=1 / psy_rd=1.00:0.15 / mixed_ref=1 / me_range=16 / chroma_me=1 / trellis=2 / 8x8dct=1 / cqm=0 / deadzone=21,11 / fast_pskip=1 / chroma_qp_offset=-3 / threads=72 / lookahead_threads=3 / sliced_threads=0 / nr=0 / decimate=1 / interlaced=0 / bluray_compat=0 / constrained_intra=0 / bframes=3 / b_pyramid=2 / b_adapt=1 / b_bias=0 / direct=3 / weightb=1 / open_gop=0 / weightp=2 / keyint=250 / keyint_min=25 / scenecut=40 / intra_refresh=0 / rc_lookahead=50 / rc=2pass / mbtree=1 / bitrate=5500 / ratetol=1.0 / qcomp=0.60 / qpmin=0 / qpmax=69 / qpstep=4 / cplxblur=20.0 / qblur=0.5 / vbv_maxrate=31250 / vbv_bufsize=31250 / nal_hrd=none / filler=0 / ip_ratio=1.40 / aq=1:1.00
    Language : English
    Default : Yes
    Forced : No

    Audio
    ID : 2
    ID in the original source medium : 4353 (0x1101)
    Format : DTS
    Format/Info : Digital Theater Systems
    Codec ID : A_DTS
    Duration : 1 h 24 min
    Bit rate mode : Constant
    Bit rate : 1 509 kb/s
    Channel(s) : 6 channels
    Channel layout : C L R Ls Rs LFE
    Sampling rate : 48.0 kHz
    Frame rate : 93.750 FPS (512 SPF)
    Bit depth : 24 bits
    Compression mode : Lossy
    Stream size : 907 MiB (22%)
    Title : Surround 5.1
    Language : English
    Default : No
    Forced : No
    Original source medium : Blu-ray

    Text
    ID : 3
    Format : UTF-8
    Codec ID : S_TEXT/UTF8
    Codec ID/Info : UTF-8 Plain Text
    Duration : 1 h 17 min
    Bit rate : 46 b/s
    Count of elements : 1012
    Stream size : 26.4 KiB (0%)
    Title : SRT
    Language : English
    Default : Yes
    Forced : No

    Menu
    00:00:00.000 : de:Chapter 01
    00:10:46.729 : de:Chapter 02
    00:23:23.527 : de:Chapter 03
    00:33:32.885 : de:Chapter 04
    00:42:17.326 : de:Chapter 05
    00:54:42.487 : de:Chapter 06
    01:04:16.811 : de:Chapter 07
    01:11:26.365 : de:Chapter 08
    01:19:01.820 : de:Chapter 09




    mhd https://www.hdvietnam.com/threads/hanh-dong-doors-2021-m720p-bluray-dd5-1x264-xmd-canh-cua.1720131/

    720p https://www.hdvietnam.com/threads/hanh-dong-doors-2021-720p-bluray-x264-dts-canh-cua.1720119/

    1080p https://www.hdvietnam.com/threads/h...p-bluray-x264-dts-hd-ma-5-1-canh-cua.1720036/

    Thuyết minh

    Remux

    ISO
     
  2. Đang tải...


Chia sẻ trang này