[Hành động] Doors 2021 m720p BluRay DD5 1x264-XMD-Cánh Cửa

Thảo luận trong 'mHD, SD' bắt đầu bởi xemaydinh, 11/10/21.

  1. xemaydinh

    xemaydinh Tem

    Tham gia ngày:
    3/7/10
    Bài viết:
    32,805
    Đã được cảm ơn:
    146,538
    Doors 2021 m720p BluRay DD5 1x264-XMD
    Cánh Cửa
    [​IMG]



    Doors (2021) là bộ phim thuộc thể loại khoa học, viễn tưởng, có thời lượng 81 phút do đạo diễn Jeff Desom , Saman Kesh sản xuất và các diễn viên tham gia như Lina Esco , Wilson Bethel , Josh Peck,... Nội dung phim Doors (2021) xoay quanh câu chuyện không hề báo trước, hàng triệu cánh cửa bí ẩn của người ngoài hành tinh bất ngờ xuất hiện trên khắp địa cầu. Trong thời gian gấp rút để tìm ra và xác định lý do thực sự cho sự xuất hiện của họ., cả nhân loại phải làm việc cùng nhau để hiểu mục đích của những dị thường vũ trụ này. Những sự cố kì lạ, bí ẩn luôn xảy ra xung quanh các cánh cửa có tri giác khiên nhân loại đặt câu hỏi về sự tồn tại của chính họ và một thực tại đã bị thay đổi khi họ cố gắng bước vào chúng.


    Unique ID : 206892687928528641904751030279515770720 (0x9BA615115396B76784A2AD27B9D98F60)
    Complete name : C:\Doors.2021.m720p.BluRay.DD5.1x264-XMD.mkv
    Format : Matroska
    Format version : Version 4
    File size : 1.77 GiB
    Duration : 1 h 24 min
    Overall bit rate : 3 010 kb/s
    Movie name : Doors.2021.720p.BluRay.x264.DTS-FGT
    Encoded date : UTC 2021-10-11 13:22:27
    Writing application : mkvmerge v8.2.0 ('World of Adventure') 32bit
    Writing library : libebml v1.3.1 + libmatroska v1.4.2

    Video
    ID : 1
    Format : AVC
    Format/Info : Advanced Video Codec
    Format profile : [email protected]
    Format settings : CABAC / 4 Ref Frames
    Format settings, CABAC : Yes
    Format settings, Reference frames : 4 frames
    Codec ID : V_MPEG4/ISO/AVC
    Duration : 1 h 24 min
    Bit rate : 1 500 kb/s
    Width : 1 280 pixels
    Height : 544 pixels
    Display aspect ratio : 2.35:1
    Frame rate mode : Constant
    Frame rate : 23.976 (23976/1000) FPS
    Color space : YUV
    Chroma subsampling : 4:2:0
    Bit depth : 8 bits
    Scan type : Progressive
    Bits/(Pixel*Frame) : 0.090
    Stream size : 901 MiB (50%)
    Writing library : x264 core 152 r2851M ba24899
    Encoding settings : cabac=1 / ref=4 / deblock=1:-1:-1 / analyse=0x3:0x113 / me=umh / subme=9 / psy=1 / psy_rd=1.00:0.15 / mixed_ref=1 / me_range=24 / chroma_me=1 / trellis=2 / 8x8dct=1 / cqm=0 / deadzone=21,11 / fast_pskip=1 / chroma_qp_offset=-3 / threads=16 / lookahead_threads=4 / sliced_threads=0 / nr=0 / decimate=1 / interlaced=0 / bluray_compat=0 / constrained_intra=0 / bframes=3 / b_pyramid=2 / b_adapt=2 / b_bias=0 / direct=3 / weightb=1 / open_gop=0 / weightp=2 / keyint=250 / keyint_min=25 / scenecut=40 / intra_refresh=0 / rc_lookahead=50 / rc=2pass / mbtree=1 / bitrate=1500 / ratetol=1.0 / qcomp=0.60 / qpmin=0 / qpmax=69 / qpstep=4 / cplxblur=20.0 / qblur=0.5 / vbv_maxrate=31250 / vbv_bufsize=31250 / nal_hrd=none / filler=0 / ip_ratio=1.40 / aq=3:1.00
    Default : Yes
    Forced : No

    Audio
    ID : 2
    Format : DTS
    Format/Info : Digital Theater Systems
    Codec ID : A_DTS
    Duration : 1 h 24 min
    Bit rate mode : Constant
    Bit rate : 1 509 kb/s
    Channel(s) : 6 channels
    Channel layout : C L R Ls Rs LFE
    Sampling rate : 48.0 kHz
    Frame rate : 93.750 FPS (512 SPF)
    Bit depth : 24 bits
    Compression mode : Lossy
    Stream size : 907 MiB (50%)
    Title : Surround 5.1
    Language : English
    Default : Yes
    Forced : No




    mhd https://www.fshare.vn/file/C342MQI4RARQ

    720p https://www.hdvietnam.com/threads/hanh-dong-doors-2021-720p-bluray-x264-dts-canh-cua.1720119/

    1080p https://www.hdvietnam.com/threads/h...p-bluray-x264-dts-hd-ma-5-1-canh-cua.1720036/

    Thuyết minh

    Remux

    ISO
     
  2. Đang tải...


Chia sẻ trang này