[Hành Động] Dune 1984 REMASTERED 1080p BluRay REMUX AVC DTS-HD MA 5.1-FGT - Xứ Cát

Thảo luận trong 'Bluray Remux' bắt đầu bởi xemaydinh, 22/10/21.

  1. xemaydinh

    xemaydinh Tem

    Tham gia ngày:
    3/7/10
    Bài viết:
    31,545
    Đã được cảm ơn:
    141,746
    Dune 1984 REMASTERED 1080p BluRay REMUX AVC DTS-HD MA 5.1-FGT - Xứ Cát
    [​IMG]



    Dune 1984 - Với Xứ Cát, Frank Herbert vẽ lên một miền cát Arrakis đầy bí ẩn và quyến rũ. Ở đó có nền khoa học kỹ thuật phát triển với tàu chim, máy tính – người Mentat, súng laze những vẫn đầy hoang sơ với những sinh vật đáng sợ như sâu cát. Ở đó có những mưu toan đấu đá giữa các gia tộc Atreides, Harkonnen, Corrino, và học viện Bene Gesserit; nhưng ở đó cũng toát lên nét thuần hậu của người Fremen và tình cảm chân thành giữa con người với nhau.

    Video

    ID : 1
    ID in the original source medium : 4113 (0x1011)
    Format : AVC
    Format/Info : Advanced Video Codec
    Format profile : [email protected]
    Format settings : CABAC / 3 Ref Frames
    Format settings, CABAC : Yes
    Format settings, Reference frames : 3 frames
    Codec ID : V_MPEG4/ISO/AVC
    Duration : 2 h 16 min
    Bit rate mode : Variable
    Bit rate : 35.6 Mb/s
    Maximum bit rate : 36.0 Mb/s
    Width : 1 920 pixels
    Height : 1 080 pixels
    Display aspect ratio : 16:9
    Frame rate mode : Constant
    Frame rate : 23.976 (24000/1001) FPS
    Standard : NTSC
    Color space : YUV
    Chroma subsampling : 4:2:0
    Bit depth : 8 bits
    Scan type : Progressive
    Bits/(Pixel*Frame) : 0.717
    Stream size : 34.0 GiB (83%)
    Writing library : x264pro - Adobe CS Exporter Plug-in
    Encoding settings : cabac=1 / ref=4 / deblock=1:-2:-2 / analyse=0x3:0x113 / me=umh / subme=9 / psy=1 / psy_rd=1.00:0.25 / mixed_ref=1 / me_range=16 / chroma_me=1 / trellis=1 / 8x8dct=1 / cqm=0 / deadzone=6,6 / fast_pskip=1 / chroma_qp_offset=-4 / threads=16 / lookahead_threads=2 / sliced_threads=0 / slices=4 / nr=0 / decimate=0 / interlaced=0 / bluray_compat=1 / constrained_intra=0 / bframes=3 / b_pyramid=1 / b_adapt=2 / b_bias=0 / direct=3 / weightb=1 / open_gop=0 / weightp=1 / keyint=24 / keyint_min=1 / scenecut=40 / intra_refresh=0 / rc_lookahead=24 / rc=crf / mbtree=1 / crf=1.0 / qcomp=0.80 / qpmin=0 / qpmax=69 / qpstep=4 / vbv_maxrate=36000 / vbv_bufsize=30000 / crf_max=0.0 / nal_hrd=vbr / ip_ratio=1.10 / aq=1:0.50
    Language : English
    Default : No
    Forced : No
    Color range : Limited
    Color primaries : BT.709
    Transfer characteristics : BT.709
    Matrix coefficients : BT.709
    Original source medium : Blu-ray

    Audio #1
    ID : 2
    ID in the original source medium : 4355 (0x1103)
    Format : DTS XLL
    Format/Info : Digital Theater Systems
    Commercial name : DTS-HD Master Audio
    Codec ID : A_DTS
    Duration : 2 h 16 min
    Bit rate mode : Variable
    Bit rate : 2 064 kb/s
    Channel(s) : 6 channels
    Channel layout : C L R Ls Rs LFE
    Sampling rate : 48.0 kHz
    Frame rate : 93.750 FPS (512 SPF)
    Bit depth : 16 bits
    Compression mode : Lossless
    Stream size : 1.97 GiB (5%)
    Title : DTS-HD MA 5.1
    Language : English
    Default : Yes
    Forced : No
    Original source medium : Blu-ray

    Audio #2
    ID : 3
    ID in the original source medium : 4354 (0x1102)
    Format : DTS XLL
    Format/Info : Digital Theater Systems
    Commercial name : DTS-HD Master Audio
    Codec ID : A_DTS
    Duration : 2 h 16 min
    Bit rate mode : Variable
    Bit rate : 1 672 kb/s
    Channel(s) : 2 channels
    Sampling rate : 48.0 kHz
    Frame rate : 93.750 FPS (512 SPF)
    Bit depth : 16 bits
    Compression mode : Lossless
    Stream size : 1.60 GiB (4%)
    Title : DTS-HD MA 2.0
    Language : English
    Default : No
    Forced : No
    Original source medium : Blu-ray

    Audio #3
    ID : 4
    ID in the original source medium : 4353 (0x1101)
    Format : DTS XLL
    Format/Info : Digital Theater Systems
    Commercial name : DTS-HD Master Audio
    Codec ID : A_DTS
    Duration : 2 h 16 min
    Bit rate mode : Variable
    Bit rate : 2 062 kb/s
    Channel(s) : 6 channels
    Channel layout : C L R Ls Rs LFE
    Sampling rate : 48.0 kHz
    Frame rate : 93.750 FPS (512 SPF)
    Bit depth : 16 bits
    Compression mode : Lossless
    Stream size : 1.97 GiB (5%)
    Title : DTS-HD MA 5.1
    Language : German
    Default : No
    Forced : No
    Original source medium : Blu-ray

    Audio #4
    ID : 5
    ID in the original source medium : 4352 (0x1100)
    Format : DTS XLL
    Format/Info : Digital Theater Systems
    Commercial name : DTS-HD Master Audio
    Codec ID : A_DTS
    Duration : 2 h 16 min
    Bit rate mode : Variable
    Bit rate : 1 672 kb/s
    Channel(s) : 2 channels
    Sampling rate : 48.0 kHz
    Frame rate : 93.750 FPS (512 SPF)
    Bit depth : 16 bits
    Compression mode : Lossless
    Stream size : 1.60 GiB (4%)
    Title : DTS-HD MA 2.0
    Language : German
    Default : No
    Forced : No
    Original source medium : Blu-ray

    Text #1
    ID : 6
    Format : UTF-8
    Codec ID : S_TEXT/UTF8
    Codec ID/Info : UTF-8 Plain Text
    Duration : 2 h 12 min
    Bit rate : 39 b/s
    Count of elements : 1111
    Stream size : 37.8 KiB (0%)
    Title : SRT
    Language : English
    Default : Yes
    Forced : No

    Text #2
    ID : 7
    ID in the original source medium : 4609 (0x1201)
    Format : PGS
    Muxing mode : zlib
    Codec ID : S_HDMV/PGS
    Codec ID/Info : Picture based subtitle format used on BDs/HD-DVDs
    Duration : 2 h 12 min
    Bit rate : 21.2 kb/s
    Count of elements : 2222
    Stream size : 20.0 MiB (0%)
    Language : English
    Default : No
    Forced : No
    Original source medium : Blu-ray

    Text #3
    ID : 8
    ID in the original source medium : 4608 (0x1200)
    Format : PGS
    Muxing mode : zlib
    Codec ID : S_HDMV/PGS
    Codec ID/Info : Picture based subtitle format used on BDs/HD-DVDs
    Duration : 2 h 12 min
    Bit rate : 24.6 kb/s
    Count of elements : 2224
    Stream size : 23.3 MiB (0%)
    Language : German
    Default : No
    Forced : No
    Original source medium : Blu-ray

    Text #4
    ID : 9
    ID in the original source medium : 4610 (0x1202)
    Format : PGS
    Muxing mode : zlib
    Codec ID : S_HDMV/PGS
    Codec ID/Info : Picture based subtitle format used on BDs/HD-DVDs
    Duration : 19 min 58 s
    Bit rate : 387 b/s
    Count of elements : 4
    Stream size : 56.6 KiB (0%)
    Title : FORCED
    Language : German
    Default : No
    Forced : No
    Original source medium : Blu-ray

    Menu
    00:00:00.000 : en:Chapter 01
    00:03:50.980 : en:Chapter 02
    00:10:35.134 : en:Chapter 03
    00:18:21.892 : en:Chapter 04
    00:24:50.906 : en:Chapter 05
    00:30:29.369 : en:Chapter 06
    00:36:52.501 : en:Chapter 07
    00:44:30.250 : en:Chapter 08
    00:49:54.241 : en:Chapter 09
    00:54:08.536 : en:Chapter 10
    01:01:11.376 : en:Chapter 11
    01:10:37.900 : en:Chapter 12
    01:15:42.538 : en:Chapter 13
    01:21:04.734 : en:Chapter 14
    01:25:48.726 : en:Chapter 15
    01:33:15.673 : en:Chapter 16
    01:41:19.281 : en:Chapter 17
    01:48:08.273 : en:Chapter 18
    01:55:11.988 : en:Chapter 19
    01:58:46.494 : en:Chapter 20
    02:06:48.309 : en:Chapter 21
    02:13:04.267 : en:Chapter 22



    mhd

    720p

    1080p

    Thuyết minh

    Remux

    ISO
     
  2. Đang tải...


Chia sẻ trang này