[Hành Động] Dune 2021 1080p Bluray TrueHD 7.1 Atmos x264 - Hành tinh cát

Thảo luận trong 'Fshare.vn' bắt đầu bởi xemaydinh, 3/12/21.

  1. xemaydinh

    xemaydinh Tem

    Tham gia ngày:
    3/7/10
    Bài viết:
    32,851
    Đã được cảm ơn:
    146,983
    mới cập nhật remux 4k


    Dune:.Part.One.2021.1080p.BluRay.DD+7.1.x264-LoRD

    Hành tinh cát
    [​IMG]


    Dune xoay quanh câu chuyện về Paul Atreides một chàng trai trẻ đầy tài năng và thông minh anh được sinh ra trong cuộc sống vô cùng tuyệt vời và vượt khỏi tầm hiểu biết của anh, không những thế anh còn phải du hành đến một hành tinh đầy nguy hiểm nhất trong vũ trụ để có thể bảo vệ an toàn cuộc sống trong tương lai của gia đình và người thân của anh. Nhưng những thế lực tàn ác đã trỗi dậy và gây xung đột về sự cung cấp tài nguyên cho sự tồn tại của hành tinh. Và chỉ có những người dũng cảm vượt qua được nỗi sợ hãi mới có thể giữ được mạng sống trên hành tinh này.


    Dune: Part One 2021 1080p BluRay DD+7.1 x264-LoRD


    GENERAL iNFORMATiON
    iMDB LiNK......: https://www.imdb.com/title/tt1160419/
    GENRE..........: |Action|Adventure|Drama|Sci-Fi|
    RELEASE DATE...: 04/12/2021
    NUMBER ENCODE..: 1580
    ENCODER........: barritus


    TECHNICAL iNFORMATiON
    RELEASE NAME...: Dune: Part One 2021 1080p BluRay DD+7.1 x264-LoRD
    RELEASE SiZE...: 18.0 GiB
    RUNTiME........: 2:35:26[h:m:s]
    ViDEO CODEC....: x264,crf,[email protected]
    FRAMERATE......: 23.976 fps
    BiTRATE........: 15.5 Mb/s->Variable
    ASPECT RATiO...: 2.40:1
    RESOLUTiON.....: 1920x804p
    CHAPTERS.......: Yes
    AUDiO#1........: English DD+7.1 @ 1024 Kbps->[Encoded with Adobe Audition]
    SUBTiTLES......: eng,tur->[.srt]
    SOURCE.........: 1080p EUR BluRay AVC Atmos TrueHD 7.1-CYBER[Thx!]


    #x264 LOG:
    x264 [info]: frame I:1457 Avg QP:12.24 size:186021
    x264 [info]: frame P:43867 Avg QP:12.51 size:124415
    x264 [info]: frame B:178291 Avg QP:14.04 size:69547
    x264 [info]: consecutive B-frames:1.5% 4.0% 3.1% 7.9% 15.7% 47.6% 12.7% 2.9% 3.2% 1.5%
    Encoded 223615 Frames, 16.24 fps, 15549.81 kb/s ~ Encoding Duration 3:49:30





    [​IMG] [​IMG] [​IMG]
    [​IMG] [​IMG] [​IMG]
    [​IMG] [​IMG] [​IMG]
    [​IMG] [​IMG] [​IMG]
    [​IMG] [​IMG] [​IMG]
    [​IMG] [​IMG] [​IMG]
    [​IMG] [​IMG] [​IMG]
    [​IMG] [​IMG] [​IMG]




    Fshare ~ 18GB
    Nhấn nút Cảm ơn (dưới chân bài) để thấy link!

    4Share
    Nhấn nút Cảm ơn (dưới chân bài) để thấy link!



    Sub Việt

    https://subscene.com/subtitles/dune-2021


    Tổng hợp phim 18+

    Tổng hợp phim full Menu (Thuyết minh+Sub Việt) bluray (nethd.org)

    Tổng hợp phim bộ Lồng tiếng, thuyết minh, sub việt

    Tổng hợp phim bluray Remux ISO 4K





    bản 1984 https://www.hdvietnam.com/threads/h...y-remux-avc-dts-hd-ma-5-1-fgt-xu-cat.1724419/

    mhd https://www.hdvietnam.com/threads/h...p-bluray-dd5-1x264-xmd-hanh-tinh-cat.1739781/

    720p https://www.hdvietnam.com/threads/hanh-dong-dune-2021-720p-bluray-x264-dts-hanh-tinh-cat.1739782/

    1080p https://www.hdvietnam.com/threads/h...-truehd-7-1-atmos-x264-hanh-tinh-cat.1739678/

    4K https://www.hdvietnam.com/threads/4...-ma-truehd-7-1-atmos-s-hanh-tinh-cat.1740430/

    Thuyết minh https://www.hdvietnam.com/threads/h...-truehd-7-1-atmos-x264-hanh-tinh-cat.1741081/

    Remux https://www.hdvietnam.com/threads/h...p-avc-truehd-7-1-atmos-hanh-tinh-cat.1739772/

    Remux thuyết minh + sub việt https://www.hdvietnam.com/threads/h...mos-x264-hanh-tinh-cat.1741081/#post-10725807

    Remux 4K https://www.hdvietnam.com/threads/r...tmos-fgt-hanh-tinh-cat.1740222/#post-10719755

    Remux 4K_thuyết minh+sub việt https://www.hdvietnam.com/threads/h...mos-x264-hanh-tinh-cat.1741081/#post-10726088

    ISO 3D https://www.hdvietnam.com/threads/i...-reencoded-mvc-dl-zman-hanh-tinh-cat.1739954/

    ISO https://www.hdvietnam.com/threads/i...tmos-7-1-hanh-tinh-cat.1740431/#post-10720058

    ISO 4K https://www.hdvietnam.com/threads/i...-hevc-truehd-atmos-7-1-hanh-tinh-cat.1740941/
     
    Chỉnh sửa cuối: 13/1/22
    letiendatcr, SCTY, tinhoc121 and 24 others like this.
  2. Đang tải...


  3. xemaydinh

    xemaydinh Tem

    Tham gia ngày:
    3/7/10
    Bài viết:
    32,851
    Đã được cảm ơn:
    146,983
  4. xemaydinh

    xemaydinh Tem

    Tham gia ngày:
    3/7/10
    Bài viết:
    32,851
    Đã được cảm ơn:
    146,983
    Dune 2021 1080p Bluray Atmos TrueHD 7.1 x264-EVO

    Hành tinh cát
    [​IMG]


    Dune xoay quanh câu chuyện về Paul Atreides một chàng trai trẻ đầy tài năng và thông minh anh được sinh ra trong cuộc sống vô cùng tuyệt vời và vượt khỏi tầm hiểu biết của anh, không những thế anh còn phải du hành đến một hành tinh đầy nguy hiểm nhất trong vũ trụ để có thể bảo vệ an toàn cuộc sống trong tương lai của gia đình và người thân của anh. Nhưng những thế lực tàn ác đã trỗi dậy và gây xung đột về sự cung cấp tài nguyên cho sự tồn tại của hành tinh. Và chỉ có những người dũng cảm vượt qua được nỗi sợ hãi mới có thể giữ được mạng sống trên hành tinh này.

    General
    Filename.......: Dune.2021.1080p.Bluray.Atmos.TrueHD.7.1.x264-EVO.mkv
    FileSize.......: 15.9 GiB
    Duration.......: 2 h 35 min


    Video
    Codec..........: AVC x264 [email protected]
    Resolution.....: 1920x800
    Aspect ratio...: 2.40:1
    Bit rate.......: 11.0 Mb/s
    Frame rate.....: 23.976 fps


    Audio
    Language.......: English
    Channels.......: 8 CH
    Format.........: Dolby TrueHD with Dolby Atmos
    Bit rate.......: 3 243 kb/s


    Audio (#2)
    Language.......: English
    Channels.......: 6 CH
    Format.........: Dolby Digital
    Bit rate.......: 640 kb/s
    (Surround)


    Subtitle.......: English




    mhd https://www.hdvietnam.com/threads/h...p-bluray-dd5-1x264-xmd-hanh-tinh-cat.1739781/

    720p https://www.hdvietnam.com/threads/hanh-dong-dune-2021-720p-bluray-x264-dts-hanh-tinh-cat.1739782/

    1080p https://www.hdvietnam.com/threads/h...-truehd-7-1-atmos-x264-hanh-tinh-cat.1739678/

    Thuyết minh

    Remux https://www.hdvietnam.com/threads/h...p-avc-truehd-7-1-atmos-hanh-tinh-cat.1739772/

    ISO
     
    roughsoul cảm ơn bài này.
  5. xemaydinh

    xemaydinh Tem

    Tham gia ngày:
    3/7/10
    Bài viết:
    32,851
    Đã được cảm ơn:
    146,983
  6. xemaydinh

    xemaydinh Tem

    Tham gia ngày:
    3/7/10
    Bài viết:
    32,851
    Đã được cảm ơn:
    146,983
    Dune 2021 1080p BluRay x264-WiKi

    Hành tinh cát
    [​IMG]


    Dune xoay quanh câu chuyện về Paul Atreides một chàng trai trẻ đầy tài năng và thông minh anh được sinh ra trong cuộc sống vô cùng tuyệt vời và vượt khỏi tầm hiểu biết của anh, không những thế anh còn phải du hành đến một hành tinh đầy nguy hiểm nhất trong vũ trụ để có thể bảo vệ an toàn cuộc sống trong tương lai của gia đình và người thân của anh. Nhưng những thế lực tàn ác đã trỗi dậy và gây xung đột về sự cung cấp tài nguyên cho sự tồn tại của hành tinh. Và chỉ có những người dũng cảm vượt qua được nỗi sợ hãi mới có thể giữ được mạng sống trên hành tinh này.

    General
    Unique ID : 243004289304441025793151599431762573779 (0xB6D0EC7A21F4ADDB8C87CD2DA1BFF9D3)
    Complete name : H:\迅雷下载\Dune.2021.1080p.BluRay.x264-WiKi\Dune.2021.1080p.BluRay.x264-WiKi.mkv
    Format : Matroska
    Format version : Version 1
    File size : 15.7 GiB
    Duration : 2 h 35 min
    Overall bit rate : 14.5 Mb/s
    Encoded date : UTC 2021-12-04 11:13:20
    Writing application : mkvmerge v2.2.0 ('Turn It On Again') built on Mar 4 2008 13:20:25
    Writing library : libebml v0.7.7 + libmatroska v0.8.1
    Attachments : MSYH.TTF / MSYH_chscht.ttf / MSYHBD.TTF / tahoma.ttf

    Video
    ID : 1
    Format : AVC
    Format/Info : Advanced Video Codec
    Format profile : [email protected]
    Format settings : CABAC / 5 Ref Frames
    Format settings, CABAC : Yes
    Format settings, ReFrames : 5 frames
    Codec ID : V_MPEG4/ISO/AVC
    Duration : 2 h 35 min
    Bit rate : 14.0 Mb/s
    Width : 1 920 pixels
    Height : 800 pixels
    Display aspect ratio : 2.40:1
    Frame rate mode : Constant
    Frame rate : 23.976 (24000/1001) FPS
    Color space : YUV
    Chroma subsampling : 4:2:0
    Bit depth : 8 bits
    Scan type : Progressive
    Bits/(Pixel*Frame) : 0.380
    Stream size : 14.9 GiB (95%)
    Writing library : x264 core 133 r2334 a3ac64b
    Encoding settings : cabac=1 / ref=5 / deblock=1:-3:-3 / analyse=0x3:0x113 / me=umh / subme=11 / psy=1 / psy_rd=1.00:0.05 / mixed_ref=1 / me_range=64 / chroma_me=1 / trellis=2 / 8x8dct=1 / cqm=0 / deadzone=21,11 / fast_pskip=0 / chroma_qp_offset=-5 / threads=36 / lookahead_threads=6 / sliced_threads=0 / nr=0 / decimate=0 / interlaced=0 / bluray_compat=0 / constrained_intra=0 / bframes=8 / b_pyramid=2 / b_adapt=2 / b_bias=0 / direct=3 / weightb=1 / open_gop=0 / weightp=2 / keyint=250 / keyint_min=23 / scenecut=40 / intra_refresh=0 / rc=2pass / mbtree=0 / bitrate=14000 / ratetol=1.0 / qcomp=0.60 / qpmin=0 / qpmax=69 / qpstep=4 / cplxblur=20.0 / qblur=0.5 / ip_ratio=1.40 / pb_ratio=1.30 / aq=1:0.80
    Language : English
    Default : Yes
    Forced : No

    Audio
    ID : 2
    Format : AC-3
    Format/Info : Audio Coding 3
    Commercial name : Dolby Digital
    Codec ID : A_AC3
    Duration : 2 h 35 min
    Bit rate mode : Constant
    Bit rate : 448 kb/s
    Channel(s) : 6 channels
    Channel layout : L R C LFE Ls Rs
    Sampling rate : 48.0 kHz
    Frame rate : 31.250 FPS (1536 SPF)
    Bit depth : 16 bits
    Compression mode : Lossy
    Stream size : 498 MiB (3%)
    Title : 英语
    Language : English
    Service kind : Complete Main
    Default : Yes
    Forced : No

    Text #1
    ID : 3
    Format : ASS
    Codec ID : S_TEXT/ASS
    Codec ID/Info : Advanced Sub Station Alpha
    Compression mode : Lossless
    Title : chs
    Language : Chinese
    Default : Yes
    Forced : No

    Text #2
    ID : 4
    Format : ASS
    Codec ID : S_TEXT/ASS
    Codec ID/Info : Advanced Sub Station Alpha
    Compression mode : Lossless
    Title : cht
    Language : Chinese
    Default : No
    Forced : No




    bản 1984 https://www.hdvietnam.com/threads/h...y-remux-avc-dts-hd-ma-5-1-fgt-xu-cat.1724419/

    mhd https://www.hdvietnam.com/threads/h...p-bluray-dd5-1x264-xmd-hanh-tinh-cat.1739781/

    720p https://www.hdvietnam.com/threads/hanh-dong-dune-2021-720p-bluray-x264-dts-hanh-tinh-cat.1739782/

    1080p https://www.hdvietnam.com/threads/h...-truehd-7-1-atmos-x264-hanh-tinh-cat.1739678/

    4K https://www.hdvietnam.com/threads/4...-ma-truehd-7-1-atmos-s-hanh-tinh-cat.1740430/

    Thuyết minh

    Remux https://www.hdvietnam.com/threads/h...p-avc-truehd-7-1-atmos-hanh-tinh-cat.1739772/

    Remux 4K https://www.hdvietnam.com/threads/r...tmos-fgt-hanh-tinh-cat.1740222/#post-10719755

    ISO 3D https://www.hdvietnam.com/threads/i...-reencoded-mvc-dl-zman-hanh-tinh-cat.1739954/

    ISO https://www.hdvietnam.com/threads/i...tmos-7-1-hanh-tinh-cat.1740431/#post-10720058
     
  7. xemaydinh

    xemaydinh Tem

    Tham gia ngày:
    3/7/10
    Bài viết:
    32,851
    Đã được cảm ơn:
    146,983
    mới cập nhật remux 4k


    Dune.2021.1080p.BluRay.x264.TrueHD.7.1.Atmos-FGT

    Hành tinh cát
    [​IMG]


    Dune xoay quanh câu chuyện về Paul Atreides một chàng trai trẻ đầy tài năng và thông minh anh được sinh ra trong cuộc sống vô cùng tuyệt vời và vượt khỏi tầm hiểu biết của anh, không những thế anh còn phải du hành đến một hành tinh đầy nguy hiểm nhất trong vũ trụ để có thể bảo vệ an toàn cuộc sống trong tương lai của gia đình và người thân của anh. Nhưng những thế lực tàn ác đã trỗi dậy và gây xung đột về sự cung cấp tài nguyên cho sự tồn tại của hành tinh. Và chỉ có những người dũng cảm vượt qua được nỗi sợ hãi mới có thể giữ được mạng sống trên hành tinh này.

    Video
    ID : 1
    Format : AVC
    Format/Info : Advanced Video Codec
    Format profile : [email protected]
    Format settings : CABAC / 4 Ref Frames
    Format settings, CABAC : Yes
    Format settings, Reference frames : 4 frames
    Codec ID : V_MPEG4/ISO/AVC
    Duration : 2 h 35 min
    Bit rate : 11.5 Mb/s
    Width : 1 920 pixels
    Height : 800 pixels
    Display aspect ratio : 2.40:1
    Frame rate mode : Constant
    Frame rate : 23.976 (24000/1001) FPS
    Color space : YUV
    Chroma subsampling : 4:2:0
    Bit depth : 8 bits
    Scan type : Progressive
    Bits/(Pixel*Frame) : 0.312
    Stream size : 12.5 GiB (75%)
    Writing library : x264 core 148 r2748 97eaef2
    Encoding settings : cabac=1 / ref=4 / deblock=1:-2:-2 / analyse=0x3:0x113 / me=umh / subme=9 / psy=1 / psy_rd=1.00:0.15 / mixed_ref=1 / me_range=16 / chroma_me=1 / trellis=2 / 8x8dct=1 / cqm=0 / deadzone=21,11 / fast_pskip=1 / chroma_qp_offset=-3 / threads=72 / lookahead_threads=3 / sliced_threads=0 / nr=0 / decimate=1 / interlaced=0 / bluray_compat=0 / constrained_intra=0 / bframes=3 / b_pyramid=2 / b_adapt=1 / b_bias=0 / direct=3 / weightb=1 / open_gop=0 / weightp=2 / keyint=250 / keyint_min=25 / scenecut=40 / intra_refresh=0 / rc_lookahead=50 / rc=2pass / mbtree=1 / bitrate=11500 / ratetol=1.0 / qcomp=0.60 / qpmin=0 / qpmax=69 / qpstep=4 / cplxblur=20.0 / qblur=0.5 / vbv_maxrate=31250 / vbv_bufsize=31250 / nal_hrd=none / filler=0 / ip_ratio=1.40 / aq=1:1.00
    Language : English
    Default : Yes
    Forced : No

    Audio #1
    ID : 2
    ID in the original source medium : 4352 (0x1100)
    Format : MLP FBA 16-ch
    Format/Info : Meridian Lossless Packing FBA with 16-channel presentation
    Commercial name : Dolby TrueHD with Dolby Atmos
    Codec ID : A_TRUEHD
    Duration : 2 h 35 min
    Bit rate mode : Variable
    Bit rate : 3 243 kb/s
    Maximum bit rate : 5 472 kb/s
    Channel(s) : 8 channels
    Channel layout : L R C LFE Ls Rs Lb Rb
    Sampling rate : 48.0 kHz
    Frame rate : 1 200.000 FPS (40 SPF)
    Bit depth : 24 bits
    Compression mode : Lossless
    Stream size : 3.52 GiB (21%)
    Title : TrueHD 7.1 Atmos
    Language : English
    Default : Yes
    Forced : No
    Original source medium : Blu-ray
    Number of dynamic objects : 11
    Bed channel count : 1 channel
    Bed channel configuration : LFE

    Audio #2
    ID : 3
    ID in the original source medium : 4352 (0x1100)
    Format : AC-3
    Format/Info : Audio Coding 3
    Commercial name : Dolby Digital
    Format settings : Dolby Surround EX
    Codec ID : A_AC3
    Duration : 2 h 35 min
    Bit rate mode : Constant
    Bit rate : 448 kb/s
    Channel(s) : 6 channels
    Channel layout : L R C LFE Ls Rs
    Sampling rate : 48.0 kHz
    Frame rate : 31.250 FPS (1536 SPF)
    Compression mode : Lossy
    Stream size : 498 MiB (3%)
    Title : DD 5.1
    Language : English
    Service kind : Complete Main
    Default : No
    Forced : No
    Original source medium : Blu-ray

    Text #1
    ID : 4
    Format : UTF-8
    Codec ID : S_TEXT/UTF8
    Codec ID/Info : UTF-8 Plain Text
    Duration : 2 h 25 min
    Bit rate : 31 b/s
    Count of elements : 1300
    Stream size : 33.8 KiB (0%)
    Language : English
    Default : Yes
    Forced : No

    Text #2
    ID : 5
    Format : UTF-8
    Codec ID : S_TEXT/UTF8
    Codec ID/Info : UTF-8 Plain Text
    Duration : 2 h 26 min
    Bit rate : 41 b/s
    Count of elements : 1686
    Stream size : 44.1 KiB (0%)
    Title : SDH
    Language : English
    Default : No
    Forced : No

    Text #3
    ID : 6
    ID in the original source medium : 4608 (0x1200)
    Format : PGS
    Muxing mode : zlib
    Codec ID : S_HDMV/PGS
    Codec ID/Info : Picture based subtitle format used on BDs/HD-DVDs
    Duration : 2 h 26 min
    Bit rate : 26.4 kb/s
    Count of elements : 3406
    Stream size : 27.7 MiB (0%)
    Language : English
    Default : No
    Forced : No
    Original source medium : Blu-ray

    Text #4
    ID : 7
    ID in the original source medium : 4609 (0x1201)
    Format : PGS
    Muxing mode : zlib
    Codec ID : S_HDMV/PGS
    Codec ID/Info : Picture based subtitle format used on BDs/HD-DVDs
    Duration : 2 h 27 min
    Bit rate : 27.6 kb/s
    Count of elements : 3510
    Stream size : 29.2 MiB (0%)
    Language : Italian
    Default : No
    Forced : No
    Original source medium : Blu-ray

    Text #5
    ID : 8
    ID in the original source medium : 4610 (0x1202)
    Format : PGS
    Muxing mode : zlib
    Codec ID : S_HDMV/PGS
    Codec ID/Info : Picture based subtitle format used on BDs/HD-DVDs
    Duration : 2 h 35 min
    Bit rate : 20.3 kb/s
    Count of elements : 2452
    Stream size : 22.5 MiB (0%)
    Language : Spanish
    Default : No
    Forced : No
    Original source medium : Blu-ray

    Text #6
    ID : 9
    ID in the original source medium : 4611 (0x1203)
    Format : PGS
    Muxing mode : zlib
    Codec ID : S_HDMV/PGS
    Codec ID/Info : Picture based subtitle format used on BDs/HD-DVDs
    Duration : 2 h 35 min
    Bit rate : 20.0 kb/s
    Count of elements : 2360
    Stream size : 22.2 MiB (0%)
    Language : Chinese
    Default : No
    Forced : No
    Original source medium : Blu-ray

    Text #7
    ID : 10
    ID in the original source medium : 4612 (0x1204)
    Format : PGS
    Muxing mode : zlib
    Codec ID : S_HDMV/PGS
    Codec ID/Info : Picture based subtitle format used on BDs/HD-DVDs
    Duration : 2 h 35 min
    Bit rate : 18.4 kb/s
    Count of elements : 2514
    Stream size : 20.4 MiB (0%)
    Language : Chinese
    Default : No
    Forced : No
    Original source medium : Blu-ray

    Text #8
    ID : 11
    ID in the original source medium : 4613 (0x1205)
    Format : PGS
    Muxing mode : zlib
    Codec ID : S_HDMV/PGS
    Codec ID/Info : Picture based subtitle format used on BDs/HD-DVDs
    Duration : 2 h 35 min
    Bit rate : 12.7 kb/s
    Count of elements : 2498
    Stream size : 14.1 MiB (0%)
    Language : Korean
    Default : No
    Forced : No
    Original source medium : Blu-ray

    Text #9
    ID : 12
    ID in the original source medium : 4614 (0x1206)
    Format : PGS
    Muxing mode : zlib
    Codec ID : S_HDMV/PGS
    Codec ID/Info : Picture based subtitle format used on BDs/HD-DVDs
    Duration : 2 h 35 min
    Bit rate : 17.7 kb/s
    Count of elements : 1780
    Stream size : 19.7 MiB (0%)
    Language : Danish
    Default : No
    Forced : No
    Original source medium : Blu-ray

    Text #10
    ID : 13
    ID in the original source medium : 4615 (0x1207)
    Format : PGS
    Muxing mode : zlib
    Codec ID : S_HDMV/PGS
    Codec ID/Info : Picture based subtitle format used on BDs/HD-DVDs
    Duration : 2 h 35 min
    Bit rate : 20.1 kb/s
    Count of elements : 2528
    Stream size : 22.4 MiB (0%)
    Language : Finnish
    Default : No
    Forced : No
    Original source medium : Blu-ray

    Text #11
    ID : 14
    ID in the original source medium : 4616 (0x1208)
    Format : PGS
    Muxing mode : zlib
    Codec ID : S_HDMV/PGS
    Codec ID/Info : Picture based subtitle format used on BDs/HD-DVDs
    Duration : 2 h 35 min
    Bit rate : 20.7 kb/s
    Count of elements : 2492
    Stream size : 23.0 MiB (0%)
    Language : Greek
    Default : No
    Forced : No
    Original source medium : Blu-ray

    Text #12
    ID : 15
    ID in the original source medium : 4617 (0x1209)
    Format : PGS
    Muxing mode : zlib
    Codec ID : S_HDMV/PGS
    Codec ID/Info : Picture based subtitle format used on BDs/HD-DVDs
    Duration : 2 h 35 min
    Bit rate : 18.3 kb/s
    Count of elements : 1918
    Stream size : 20.3 MiB (0%)
    Language : Norwegian
    Default : No
    Forced : No
    Original source medium : Blu-ray

    Text #13
    ID : 16
    ID in the original source medium : 4618 (0x120A)
    Format : PGS
    Muxing mode : zlib
    Codec ID : S_HDMV/PGS
    Codec ID/Info : Picture based subtitle format used on BDs/HD-DVDs
    Duration : 2 h 35 min
    Bit rate : 18.1 kb/s
    Count of elements : 1926
    Stream size : 20.1 MiB (0%)
    Language : Swedish
    Default : No
    Forced : No
    Original source medium : Blu-ray

    Menu
    00:00:00.000 : en:Chapter 01
    00:03:16.154 : en:Chapter 02
    00:12:54.815 : en:Chapter 03
    00:22:00.736 : en:Chapter 04
    00:29:16.921 : en:Chapter 05
    00:39:10.931 : en:Chapter 06
    00:47:19.795 : en:Chapter 07
    00:56:53.493 : en:Chapter 08
    01:06:50.381 : en:Chapter 09
    01:16:44.891 : en:Chapter 10
    01:26:00.655 : en:Chapter 11
    01:36:00.379 : en:Chapter 12
    01:45:09.469 : en:Chapter 13
    01:53:50.323 : en:Chapter 14
    02:03:38.536 : en:Chapter 15
    02:12:13.342 : en:Chapter 16
    02:20:45.770 : en:Chapter 17
    02:27:27.797 : en:Chapter 18




    bản 1984 https://www.hdvietnam.com/threads/h...y-remux-avc-dts-hd-ma-5-1-fgt-xu-cat.1724419/

    mhd https://www.hdvietnam.com/threads/h...p-bluray-dd5-1x264-xmd-hanh-tinh-cat.1739781/

    720p https://www.hdvietnam.com/threads/hanh-dong-dune-2021-720p-bluray-x264-dts-hanh-tinh-cat.1739782/

    1080p https://www.hdvietnam.com/threads/h...-truehd-7-1-atmos-x264-hanh-tinh-cat.1739678/

    4K https://www.hdvietnam.com/threads/4...-ma-truehd-7-1-atmos-s-hanh-tinh-cat.1740430/

    Thuyết minh

    Remux https://www.hdvietnam.com/threads/h...p-avc-truehd-7-1-atmos-hanh-tinh-cat.1739772/

    Remux 4K https://www.hdvietnam.com/threads/r...tmos-fgt-hanh-tinh-cat.1740222/#post-10719755

    ISO 3D https://www.hdvietnam.com/threads/i...-reencoded-mvc-dl-zman-hanh-tinh-cat.1739954/

    ISO https://www.hdvietnam.com/threads/i...tmos-7-1-hanh-tinh-cat.1740431/#post-10720058
     
  8. xemaydinh

    xemaydinh Tem

    Tham gia ngày:
    3/7/10
    Bài viết:
    32,851
    Đã được cảm ơn:
    146,983
  9. xemaydinh

    xemaydinh Tem

    Tham gia ngày:
    3/7/10
    Bài viết:
    32,851
    Đã được cảm ơn:
    146,983
  10. xemaydinh

    xemaydinh Tem

    Tham gia ngày:
    3/7/10
    Bài viết:
    32,851
    Đã được cảm ơn:
    146,983
  11. xemaydinh

    xemaydinh Tem

    Tham gia ngày:
    3/7/10
    Bài viết:
    32,851
    Đã được cảm ơn:
    146,983
    mới cập nhật remux 4k


    Dune 2021 BluRay 1080p TrueHD Atmos 7.1 x265 10bit-BeiTai

    Hành tinh cát
    [​IMG]


    Dune xoay quanh câu chuyện về Paul Atreides một chàng trai trẻ đầy tài năng và thông minh anh được sinh ra trong cuộc sống vô cùng tuyệt vời và vượt khỏi tầm hiểu biết của anh, không những thế anh còn phải du hành đến một hành tinh đầy nguy hiểm nhất trong vũ trụ để có thể bảo vệ an toàn cuộc sống trong tương lai của gia đình và người thân của anh. Nhưng những thế lực tàn ác đã trỗi dậy và gây xung đột về sự cung cấp tài nguyên cho sự tồn tại của hành tinh. Và chỉ có những người dũng cảm vượt qua được nỗi sợ hãi mới có thể giữ được mạng sống trên hành tinh này.

    [RELEASE INFORMATION]
    RELEASE.NAME...: Dune.2021.BluRay.1080p.TrueHD.Atmos.7.1.x265.10bit-BeiTai.mkv
    RELEASE.TIME...: Dec 5 2021
    IMDB.LINK......: https://www.imdb.com/title/tt1160419/
    IMDB.RATING....: 8.2/10 367,307
    GENRE..........: Action, Adventure, Drama
    RUN.TIME.......: 2:35:26.608 (h:m:s.ms)
    VIDEO.CODEC....: HEVC, [email protected]@High, 24/1.001 fps
    x264 LOG.......: Ref=5, B-frame=6, crf=17
    BIT.RATE.......: 3811 kbps, 8.28 GB
    RESOLUTION.....: 1920 x 802, 2.394: 1
    AUDIO1.........: English Dolby TrueHD 7.1 (Atmos) @ @ 3691 kbps
    AUDIO2.........: English AC3 5.1-EX @ 448 kbps
    CHAPTERS.......: YES
    SUBTiTLES1.....: Eng/SUP
    SUBTiTLES2.....: Cht/SUP 原盘繁体(TW)
    SUBTiTLES3.....: Cht/SUP 原盘繁体(HK)
    RIP.SOURCE.....: Dune 2021 1080p EUR Blu-ray AVC Atmos TrueHD 7.1-CYBER
    ENCODER........: anonymous

    ---[Information] [2021/12/5 8:31:53] x265 [info]: frame I: 1954, Avg QP:16.13 kb/s: 14436.73
    ---[Information] [2021/12/5 8:31:53] x265 [info]: frame P: 38808, Avg QP:17.25 kb/s: 9794.54
    ---[Information] [2021/12/5 8:31:53] x265 [info]: frame B: 182853, Avg QP:21.13 kb/s: 2427.24




    bản 1984 https://www.hdvietnam.com/threads/h...y-remux-avc-dts-hd-ma-5-1-fgt-xu-cat.1724419/

    mhd https://www.hdvietnam.com/threads/h...p-bluray-dd5-1x264-xmd-hanh-tinh-cat.1739781/

    720p https://www.hdvietnam.com/threads/hanh-dong-dune-2021-720p-bluray-x264-dts-hanh-tinh-cat.1739782/

    1080p https://www.hdvietnam.com/threads/h...-truehd-7-1-atmos-x264-hanh-tinh-cat.1739678/

    4K https://www.hdvietnam.com/threads/4...-ma-truehd-7-1-atmos-s-hanh-tinh-cat.1740430/

    Thuyết minh https://www.hdvietnam.com/threads/h...-truehd-7-1-atmos-x264-hanh-tinh-cat.1741081/

    Remux https://www.hdvietnam.com/threads/h...p-avc-truehd-7-1-atmos-hanh-tinh-cat.1739772/

    Remux 4K https://www.hdvietnam.com/threads/r...tmos-fgt-hanh-tinh-cat.1740222/#post-10719755

    ISO 3D https://www.hdvietnam.com/threads/i...-reencoded-mvc-dl-zman-hanh-tinh-cat.1739954/

    ISO https://www.hdvietnam.com/threads/i...tmos-7-1-hanh-tinh-cat.1740431/#post-10720058

    ISO 4K https://www.hdvietnam.com/threads/i...-hevc-truehd-atmos-7-1-hanh-tinh-cat.1740941/
     
    playboy2505 cảm ơn bài này.
  12. xemaydinh

    xemaydinh Tem

    Tham gia ngày:
    3/7/10
    Bài viết:
    32,851
    Đã được cảm ơn:
    146,983
  13. xemaydinh

    xemaydinh Tem

    Tham gia ngày:
    3/7/10
    Bài viết:
    32,851
    Đã được cảm ơn:
    146,983
  14. xemaydinh

    xemaydinh Tem

    Tham gia ngày:
    3/7/10
    Bài viết:
    32,851
    Đã được cảm ơn:
    146,983
  15. xemaydinh

    xemaydinh Tem

    Tham gia ngày:
    3/7/10
    Bài viết:
    32,851
    Đã được cảm ơn:
    146,983
  16. xemaydinh

    xemaydinh Tem

    Tham gia ngày:
    3/7/10
    Bài viết:
    32,851
    Đã được cảm ơn:
    146,983
  17. xemaydinh

    xemaydinh Tem

    Tham gia ngày:
    3/7/10
    Bài viết:
    32,851
    Đã được cảm ơn:
    146,983
    Dune.2021.BluRay.1080p.x264.Atmos.TrueHD7.1-HDChina

    Hành tinh cát
    [​IMG]


    Dune xoay quanh câu chuyện về Paul Atreides một chàng trai trẻ đầy tài năng và thông minh anh được sinh ra trong cuộc sống vô cùng tuyệt vời và vượt khỏi tầm hiểu biết của anh, không những thế anh còn phải du hành đến một hành tinh đầy nguy hiểm nhất trong vũ trụ để có thể bảo vệ an toàn cuộc sống trong tương lai của gia đình và người thân của anh. Nhưng những thế lực tàn ác đã trỗi dậy và gây xung đột về sự cung cấp tài nguyên cho sự tồn tại của hành tinh. Và chỉ có những người dũng cảm vượt qua được nỗi sợ hãi mới có thể giữ được mạng sống trên hành tinh này.

    Dune.2021.BluRay.1080p.x264.Atmos.TrueHD.7.1-HDChina

    ----------MEDiA iNFO------------

    SOURCE TYPE.....: Blu-Ray 1080p AVC Atmos TrueHD7.1
    ViDEO BiTRATE...: x264 L4.1 High @ 12000 kbps
    FRAME RATE......: 23.976 fps
    AUDiO1..........: English TrueHD 7.1 @ 3243 kbps
    AUDiO2..........: English DD 5.1 @ 448 kbps
    RESOLUTiON......: 1920 x 800
    SUBTiTLE........: English | Chinese
    ENCODER ........: tianhe @ HDChina

    ----------X264 iNFO------------

    x264 [info]: frame I:1443 Avg QP:11.99 size:192214
    x264 [info]: frame P:47055 Avg QP:13.76 size: 96676
    x264 [info]: frame B:175117 Avg QP:14.89 size: 52339
    x264 [info]: consecutive B-frames: 1.9% 5.7% 4.6% 9.5% 17.3% 41.3% 12.3% 4.6% 2.8%




    bản 1984 https://www.hdvietnam.com/threads/h...y-remux-avc-dts-hd-ma-5-1-fgt-xu-cat.1724419/

    mhd https://www.hdvietnam.com/threads/h...p-bluray-dd5-1x264-xmd-hanh-tinh-cat.1739781/

    720p https://www.hdvietnam.com/threads/hanh-dong-dune-2021-720p-bluray-x264-dts-hanh-tinh-cat.1739782/

    1080p https://www.hdvietnam.com/threads/h...-truehd-7-1-atmos-x264-hanh-tinh-cat.1739678/

    4K https://www.hdvietnam.com/threads/4...-ma-truehd-7-1-atmos-s-hanh-tinh-cat.1740430/

    Thuyết minh https://www.hdvietnam.com/threads/h...-truehd-7-1-atmos-x264-hanh-tinh-cat.1741081/

    Remux https://www.hdvietnam.com/threads/h...p-avc-truehd-7-1-atmos-hanh-tinh-cat.1739772/

    Remux thuyết minh + sub việt https://www.hdvietnam.com/threads/h...mos-x264-hanh-tinh-cat.1741081/#post-10725807

    Remux 4K https://www.hdvietnam.com/threads/r...tmos-fgt-hanh-tinh-cat.1740222/#post-10719755

    Remux 4K_thuyết minh+sub việt https://www.hdvietnam.com/threads/h...mos-x264-hanh-tinh-cat.1741081/#post-10726088

    ISO 3D https://www.hdvietnam.com/threads/i...-reencoded-mvc-dl-zman-hanh-tinh-cat.1739954/

    ISO https://www.hdvietnam.com/threads/i...tmos-7-1-hanh-tinh-cat.1740431/#post-10720058

    ISO 4K https://www.hdvietnam.com/threads/i...-hevc-truehd-atmos-7-1-hanh-tinh-cat.1740941/
     
  18. xemaydinh

    xemaydinh Tem

    Tham gia ngày:
    3/7/10
    Bài viết:
    32,851
    Đã được cảm ơn:
    146,983
  19. xemaydinh

    xemaydinh Tem

    Tham gia ngày:
    3/7/10
    Bài viết:
    32,851
    Đã được cảm ơn:
    146,983
  20. xemaydinh

    xemaydinh Tem

    Tham gia ngày:
    3/7/10
    Bài viết:
    32,851
    Đã được cảm ơn:
    146,983

Chia sẻ trang này