[Hành Động] Fast & Furious Presents: Hobbs and Shaw 2019 UHD BluRay DDP 7.1 HDR x265 D-Z0N3

Thảo luận trong 'Fshare.vn' bắt đầu bởi kyoshiro244, 11/11/19.

  1. kyoshiro244

    kyoshiro244 Active Member

    Tham gia ngày:
    2/3/11
    Bài viết:
    26
    Đã được cảm ơn:
    305
    [​IMG]
    Câu chuyện giữa hai người tưởng như không đội trời chung là Đặc vụ An ninh Ngoại giao Mỹ Luke Hobbs và tên tội phạm đánh thuê khét tiếng Deckard Shaw khi họ bất đắc dĩ phải bắt tay hợp tác nhằm ngăn chặn âm mưu của trùm phản diện cực nguy hiểm trong diện bí ẩn Brixton.
    Mediainfo
    Mã:
    General
    Unique ID : 91236776816233931498371120267350352050 (0x44A39065944841EDF920C86401C5A0B2)
    
    
    Complete name : Fast.&.Furious.Presents.Hobbs.&.Shaw.2019.UHD.BluRay.DDP.7.1.HDR.x265.D-Z0N3.mkv
    Format : Matroska
    Format version : Version 4
    File size : 8.71 GiB
    Duration : 2 h 16 min
    Overall bit rate : 9 121 kb/s
    Movie name : Fast.&.Furious.Presents.Hobbs.&.Shaw.2019.UHD.BluRay.DDP.7.1.HDR.x265.D-Z0N3
    Encoded date : UTC 2019-10-27 13:42:39
    Writing application : mkvmerge v35.0.0 ('All The Love In The World') 64-bit
    Writing library : libebml v1.3.9 + libmatroska v1.5.2
    Video
    ID : 1
    Format : HEVC
    Format/Info : High Efficiency Video Coding
    Format profile : Main [email protected]@High
    HDR format : SMPTE ST 2086, HDR10 compatible
    Codec ID : V_MPEGH/ISO/HEVC
    Duration : 2 h 16 min
    Bit rate : 7 623 kb/s
    Width : 1 920 pixels
    Height : 804 pixels
    Display aspect ratio : 2.40:1
    Frame rate mode : Constant
    Frame rate : 23.976 (24000/1001) FPS
    Color space : YUV
    Chroma subsampling : 4:2:0 (Type 2)
    Bit depth : 10 bits
    Bits/(Pixel*Frame) : 0.206
    Stream size : 7.28 GiB (84%)
    Title : x265 / 7615 kbps / 1080p / 23.976 fps / 2.40:1 / Main 10 Profile 5.0 High / 4:2:0 / 10 bits / HDR / BT.2020
    Writing library : x265 3.2+8-7fc1f6ef2b96:[Windows][MSVC 1923][64 bit] 10bit
    Encoding settings : cpuid=1111039 / frame-threads=4 / numa-pools=16 / wpp / no-pmode / no-pme / no-psnr / no-ssim / log-level=2 / input-csp=1 / input-res=1920x804 / interlace=0 / total-frames=196646 / level-idc=50 / high-tier=1 / uhd-bd=0 / ref=6 / no-allow-non-conformance / repeat-headers / annexb / aud / hrd / info / hash=0 / no-temporal-layers / no-open-gop / min-keyint=23 / keyint=250 / gop-lookahead=0 / bframes=16 / b-adapt=2 / b-pyramid / bframe-bias=0 / rc-lookahead=60 / lookahead-slices=0 / scenecut=40 / radl=0 / no-splice / no-intra-refresh / ctu=64 / min-cu-size=8 / no-rect / no-amp / max-tu-size=32 / tu-inter-depth=4 / tu-intra-depth=4 / limit-tu=4 / rdoq-level=2 / dynamic-rd=0.00 / no-ssim-rd / signhide / no-tskip / nr-intra=0 / nr-inter=0 / no-constrained-intra / strong-intra-smoothing / max-merge=5 / limit-refs=0 / no-limit-modes / me=3 / subme=7 / merange=57 / temporal-mvp / no-frame-dup / no-hme / weightp / weightb / no-analyze-src-pics / deblock=-3:-3 / no-sao / no-sao-non-deblock / rd=3 / selective-sao=0 / no-early-skip / no-rskip / no-fast-intra / no-tskip-fast / no-cu-lossless / b-intra / no-splitrd-skip / rdpenalty=0 / psy-rd=1.05 / psy-rdoq=1.10 / no-rd-refine / no-lossless / cbqpoffs=-1 / crqpoffs=-1 / rc=crf / crf=16.2 / qcomp=0.70 / qpstep=4 / stats-write=0 / stats-read=0 / vbv-maxrate=100000 / vbv-bufsize=100000 / vbv-init=0.9 / crf-max=0.0 / crf-min=0.0 / ipratio=1.30 / pbratio=1.20 / aq-mode=3 / aq-strength=0.75 / no-cutree / zone-count=0 / no-strict-cbr / qg-size=32 / no-rc-grain / qpmax=69 / qpmin=0 / no-const-vbv / sar=0 / overscan=0 / videoformat=5 / range=0 / colorprim=9 / transfer=16 / colormatrix=9 / chromaloc=1 / chromaloc-top=2 / chromaloc-bottom=2 / display-window=0 / master-display=G(13250,34500)B(7500,3000)R(34000,16000)WP(15635,16450)L(40000000,50) / cll=1000,419 / min-luma=0 / max-luma=1023 / log2-max-poc-lsb=8 / vui-timing-info / vui-hrd-info / slices=1 / no-opt-qp-pps / no-opt-ref-list-length-pps / no-multi-pass-opt-rps / scenecut-bias=0.05 / no-opt-cu-delta-qp / no-aq-motion / hdr / hdr-opt / no-dhdr10-opt / no-idr-recovery-sei / analysis-reuse-level=5 / scale-factor=0 / refine-intra=0 / refine-inter=0 / refine-mv=1 / refine-ctu-distortion=0 / no-limit-sao / ctu-info=0 / no-lowpass-dct / refine-analysis-type=0 / copy-pic=1 / max-ausize-factor=1.0 / no-dynamic-refine / no-single-sei / no-hevc-aq / no-svt / no-field / qp-adaptation-range=1.00
    Default : Yes
    Forced : No
    Color range : Limited
    Color primaries : BT.2020
    Transfer characteristics : PQ
    Matrix coefficients : BT.2020 non-constant
    Mastering display color primaries : Display P3
    Mastering display luminance : min: 0.0050 cd/m2, max: 4000 cd/m2
    Maximum Content Light Level : 1000 cd/m2
    Maximum Frame-Average Light Level : 419 cd/m2
    Audio #1
    ID : 2
    Format : E-AC-3
    Format/Info : Enhanced AC-3
    Commercial name : Dolby Digital Plus
    Format profile : Blu-ray Disc
    Codec ID : A_EAC3
    Duration : 2 h 16 min
    Bit rate mode : Constant
    Bit rate : 1 280 kb/s
    Channel(s) : 8 channels
    Channel layout : L R C LFE Ls Rs Lb Rb
    Sampling rate : 48.0 kHz
    Frame rate : 31.250 FPS (1536 SPF)
    Compression mode : Lossy
    Stream size : 1.22 GiB (14%)
    Title : Dolby Digital Plus / 7.1 / 48 kHz / 1280 kbps
    Language : English
    Service kind : Complete Main
    Default : Yes
    Forced : No
    Audio #2
    ID : 3
    Format : AC-3
    Format/Info : Audio Coding 3
    Commercial name : Dolby Digital
    Codec ID : A_AC3
    Duration : 2 h 16 min
    Bit rate mode : Constant
    Bit rate : 192 kb/s
    Channel(s) : 2 channels
    Channel layout : L R
    Sampling rate : 48.0 kHz
    Frame rate : 31.250 FPS (1536 SPF)
    Bit depth : 16 bits
    Compression mode : Lossy
    Stream size : 188 MiB (2%)
    Title : Commentary with Director David Leitch / Dolby Digital / 2.0 / 48 kHz / 192 kbps
    Language : English
    Service kind : Complete Main
    Default : No
    Forced : No
    Text #1
    ID : 4
    Format : UTF-8
    Codec ID : S_TEXT/UTF8
    Codec ID/Info : UTF-8 Plain Text
    Duration : 2 h 15 min
    Bit rate : 58 b/s
    Count of elements : 1609
    Stream size : 58.5 KiB (0%)
    Language : English
    Default : No
    Forced : No
    Text #2
    ID : 5
    Format : UTF-8
    Codec ID : S_TEXT/UTF8
    Codec ID/Info : UTF-8 Plain Text
    Duration : 2 h 16 min
    Bit rate : 78 b/s
    Count of elements : 2204
    Stream size : 78.4 KiB (0%)
    Title : SDH
    Language : English
    Default : No
    Forced : No
    Text #3
    ID : 6
    Format : UTF-8
    Codec ID : S_TEXT/UTF8
    Codec ID/Info : UTF-8 Plain Text
    Duration : 2 h 16 min
    Bit rate : 52 b/s
    Count of elements : 1654
    Stream size : 51.9 KiB (0%)
    Language : French
    Default : No
    Forced : No
    Text #4
    ID : 7
    Format : PGS
    Muxing mode : zlib
    Codec ID : S_HDMV/PGS
    Codec ID/Info : Picture based subtitle format used on BDs/HD-DVDs
    Duration : 2 h 16 min
    Bit rate : 41.7 kb/s
    Count of elements : 3334
    Stream size : 40.6 MiB (0%)
    Title : Latin American
    Language : Spanish
    Default : No
    Forced : No
    Menu
    00:00:00.000 : en:Chapter 1
    00:04:58.131 : en:Chapter 2
    00:13:43.489 : en:Chapter 3
    00:19:21.452 : en:Chapter 4
    00:26:45.979 : en:Chapter 5
    00:35:41.514 : en:Chapter 6
    00:40:13.244 : en:Chapter 7
    00:46:22.029 : en:Chapter 8
    00:51:34.216 : en:Chapter 9
    00:57:51.802 : en:Chapter 10
    01:01:53.251 : en:Chapter 11
    01:08:45.163 : en:Chapter 12
    01:14:22.833 : en:Chapter 13
    01:19:48.075 : en:Chapter 14
    01:24:59.261 : en:Chapter 15
    01:32:58.198 : en:Chapter 16
    01:38:48.923 : en:Chapter 17
    01:46:32.970 : en:Chapter 18
    01:53:29.594 : en:Chapter 19
    02:01:14.809 : en:Chapter 20

    [​IMG] [​IMG] [​IMG]
    Sau đây là link down, phiên bản này nhẹ 9Gb mà chất lương siêu cao thích hợp cho anh em sưu tầm!
    Nhấn nút Cảm ơn (dưới chân bài) để thấy link!
     
    Chỉnh sửa cuối: 12/11/19
  2. trangquynhonline

    trangquynhonline Member

    Tham gia ngày:
    23/4/09
    Bài viết:
    294
    Đã được cảm ơn:
    21
    Có súp chưa bác :D
     
  3. Doan Hung

    Doan Hung New Member

    Tham gia ngày:
    17/12/19
    Bài viết:
    2
    Đã được cảm ơn:
    0
    Giới tính:
    Nam
    sao khong thấy link ta
     
  4. Doan Hung

    Doan Hung New Member

    Tham gia ngày:
    17/12/19
    Bài viết:
    2
    Đã được cảm ơn:
    0
    Giới tính:
    Nam
    sao khong thấy link ta
     
  5. vanish2019

    vanish2019 Member

    Tham gia ngày:
    2/5/19
    Bài viết:
    82
    Đã được cảm ơn:
    92
    Giới tính:
    Nam
    Nghề nghiệp:
    Retoucher, Digital Imaging Artist
    cảm ơn Bác đã chia sẽ ... <3
     
  6. camapbiensaupy

    camapbiensaupy New Member

    Tham gia ngày:
    17/11/12
    Bài viết:
    20
    Đã được cảm ơn:
    4
    Cảm ơn bác đã chia sẻ
     
  7. thanhnop88

    thanhnop88 Member

    Tham gia ngày:
    12/10/15
    Bài viết:
    98
    Đã được cảm ơn:
    15
    link die rồi bác ơi
     
  8. hoangminhrf

    hoangminhrf New Member

    Tham gia ngày:
    13/1/11
    Bài viết:
    7
    Đã được cảm ơn:
    1
    link die rồi, bác up lại nhé
     

Chia sẻ trang này