[Fshare] [Hành Động & Hài] Robin B Hood 2006 ViE 1080p BluRay x264-aBD - Kế Hoạch BaBy

Thảo luận trong 'Phim có audio Việt' bắt đầu bởi tamquocgia94, 19/5/20.

  1. tamquocgia94

    tamquocgia94 Well-Known Member

    Tham gia ngày:
    30/10/17
    Bài viết:
    1,348
    Đã được cảm ơn:
    48,654
    Giới tính:
    Nam
    Nghề nghiệp:
    Osin tổng thống
    Nơi ở:
    Dubai
    Robin B Hood 2006 ViE 1080p BluRay x264-aBD - Kế Hoạch BaBy
    (Thành Long, Cổ Thiên Lạc, Cao Viên Viên, Thái Trác Nghiên)
    Thuyết Minh + Sub Việt Mux Sẵn
    [​IMG]
    [​IMG]
    [​IMG]

    [​IMG]

    Mã:
    General
    Unique ID                   : 227166847818902054569396508956438963291 (0xAAE6BE534E53D200BFAF796FE3D2245B)
    Complete name               : C:\Users\tamquocgia\Downloads\Robin.B.Hood.2006.ViE.1080p.BluRay.x264-aBD.mkv
    Format                      : Matroska
    Format version              : Version 4 / Version 2
    File size                   : 9.31 GiB
    Duration                    : 2h 6mn
    Overall bit rate            : 10.5 Mbps
    Movie name                  : Rumble.in.the.Bronx.1995.BluRay.Remux.1080p.AVC.DTS-HD.MA.5.1-MTeam
    
    
    Encoded date                : UTC 2020-05-19 05:59:00
    Writing application         : mkvmerge v7.9.0 ('Birds') 32bit
    Writing library             : libebml v1.3.1 + libmatroska v1.4.2
    Video
    ID                          : 1
    Format                      : AVC
    Format/Info                 : Advanced Video Codec
    Format profile              : [email protected]
    Format settings, CABAC      : Yes
    Format settings, ReFrames   : 4 frames
    Codec ID                    : V_MPEG4/ISO/AVC
    Duration                    : 2h 6mn
    Bit rate                    : 8 387 Kbps
    Width                       : 1 920 pixels
    Height                      : 1 080 pixels
    Display aspect ratio        : 16:9
    Frame rate mode             : Constant
    Frame rate                  : 23.976 (24000/1001) fps
    Color space                 : YUV
    Chroma subsampling          : 4:2:0
    Bit depth                   : 8 bits
    Scan type                   : Progressive
    Bits/(Pixel*Frame)          : 0.169
    Stream size                 : 7.41 GiB (80%)
    Writing library             : x264 core 107 r1745 4785e8e
    Encoding settings           : cabac=1 / ref=4 / deblock=1:-1:-1 / analyse=0x3:0x113 / me=umh / subme=7 / psy=1 / psy_rd=1.00:0.00 / mixed_ref=1 / me_range=16 / chroma_me=1 / trellis=1 / 8x8dct=1 / cqm=0 / deadzone=21,11 / fast_pskip=1 / chroma_qp_offset=-2 / threads=12 / sliced_threads=0 / nr=0 / decimate=1 / interlaced=0 / constrained_intra=0 / bframes=3 / b_pyramid=2 / b_adapt=2 / b_bias=0 / direct=3 / weightb=1 / open_gop=0 / weightp=2 / keyint=250 / keyint_min=23 / scenecut=40 / intra_refresh=0 / rc_lookahead=40 / rc=2pass / mbtree=1 / bitrate=8387 / ratetol=1.0 / qcomp=0.60 / qpmin=10 / qpmax=51 / qpstep=4 / cplxblur=20.0 / qblur=0.5 / vbv_maxrate=50000 / vbv_bufsize=50000 / ip_ratio=1.40 / aq=1:1.00 / nal_hrd=none
    Language                    : Chinese
    Default                     : Yes
    Forced                      : Yes
    Audio #1
    ID                          : 2
    Format                      : AC-3
    Format/Info                 : Audio Coding 3
    Mode extension              : CM (complete main)
    Format settings, Endianness : Big
    Codec ID                    : A_AC3
    Duration                    : 2h 6mn
    Bit rate mode               : Constant
    Bit rate                    : 640 Kbps
    Channel(s)                  : 6 channels
    Channel positions           : Front: L C R, Side: L R, LFE
    Sampling rate               : 48.0 KHz
    Frame rate                  : 31.250 fps (1536 spf)
    Compression mode            : Lossy
    Stream size                 : 579 MiB (6%)
    Title                       : Thuyết Minh Mux by tamquocgia94.HDVN Sync by hunggy
    Language                    : Vietnamese
    Default                     : No
    Forced                      : No
    Audio #2
    ID                          : 3
    Format                      : DTS
    Format/Info                 : Digital Theater Systems
    Mode                        : 16
    Format settings, Endianness : Big
    Codec ID                    : A_DTS
    Duration                    : 2h 6mn
    Bit rate mode               : Constant
    Bit rate                    : 1 509 Kbps
    Channel(s)                  : 6 channels
    Channel positions           : Front: L C R, Side: L R, LFE
    Sampling rate               : 48.0 KHz
    Frame rate                  : 93.750 fps (512 spf)
    Bit depth                   : 16 bits
    Compression mode            : Lossy
    Stream size                 : 1.33 GiB (14%)
    Language                    : Chinese
    Default                     : Yes
    Forced                      : Yes
    Text #1
    ID                          : 4
    Format                      : UTF-8
    Codec ID                    : S_TEXT/UTF8
    Codec ID/Info               : UTF-8 Plain Text
    Duration                    : 2h 2mn
    Bit rate                    : 58 bps
    Count of elements           : 1669
    Stream size                 : 52.2 KiB (0%)
    Language                    : Vietnamese
    Default                     : No
    Forced                      : No
    Text #2
    ID                          : 5
    Format                      : UTF-8
    Codec ID                    : S_TEXT/UTF8
    Codec ID/Info               : UTF-8 Plain Text
    Duration                    : 2h 5mn
    Bit rate                    : 43 bps
    Count of elements           : 1256
    Stream size                 : 39.7 KiB (0%)
    Language                    : English
    Default                     : Yes
    Forced                      : No


    Link Tải Phim
    Nhấn nút Cảm ơn (dưới chân bài) để thấy link!
     
    Chỉnh sửa cuối: 24/5/20
  2. Đang tải...


Chia sẻ trang này