[Fshare] [Hành Động] Island Of Fire 1990 1080p Bluray x264 DTS-KhoHD - Đảo Lửa (USLT)

Thảo luận trong 'Phim có audio Việt' bắt đầu bởi tamquocgia94, 18/5/20.

  1. tamquocgia94

    tamquocgia94 Well-Known Member

    Tham gia ngày:
    30/10/17
    Bài viết:
    1,348
    Đã được cảm ơn:
    48,689
    Giới tính:
    Nam
    Nghề nghiệp:
    Osin tổng thống
    Nơi ở:
    Dubai
    [Hành Động] Island Of Fire 1990 1080p Bluray x264 DTS-KhoHD - Đảo Lửa (USLT)
    Lồng Tiếng + Sub Việt Mux Sẵn
    [​IMG]
    [​IMG]
    [​IMG]
    [​IMG]

    Mã:
    General
    Unique ID                   : 236213650679904301550853108340796841747 (0xB1B51824D086246B9683F0A8DB165F13)
    Complete name               : C:\Users\tamquocgia\Downloads\Island.Of.Fire.1990.LT.1080p.Bluray.x264.DTS-KhoHD.mkv
    Format                      : Matroska
    Format version              : Version 4 / Version 2
    File size                   : 9.41 GiB
    Duration                    : 1h 36mn
    Overall bit rate mode       : Variable
    Overall bit rate            : 14.0 Mbps
    
    
    Movie name                  : HoaiTrung-KhoHD
    Encoded date                : UTC 2020-05-18 12:09:01
    Writing application         : mkvmerge v7.9.0 ('Birds') 32bit
    Writing library             : libebml v1.3.1 + libmatroska v1.4.2
    Video
    ID                          : 1
    Format                      : AVC
    Format/Info                 : Advanced Video Codec
    Format profile              : [email protected]
    Format settings, CABAC      : No
    Format settings, ReFrames   : 5 frames
    Format settings, GOP        : N=1
    Codec ID                    : V_MPEG4/ISO/AVC
    Duration                    : 1h 36mn
    Bit rate mode               : Variable
    Bit rate                    : 13.8 Mbps
    Maximum bit rate            : 40.0 Mbps
    Width                       : 1 920 pixels
    Height                      : 1 080 pixels
    Display aspect ratio        : 16:9
    Frame rate mode             : Constant
    Frame rate                  : 23.976 (24000/1001) fps
    Color space                 : YUV
    Chroma subsampling          : 4:2:0
    Bit depth                   : 8 bits
    Scan type                   : Progressive
    Bits/(Pixel*Frame)          : 0.278
    Stream size                 : 9.32 GiB (99%)
    Language                    : Chinese
    Default                     : Yes
    Forced                      : No
    Color range                 : Limited
    Color primaries             : BT.709
    Transfer characteristics    : BT.709
    Matrix coefficients         : BT.709
    Audio
    ID                          : 2
    Format                      : MPEG Audio
    Format version              : Version 1
    Format profile              : Layer 3
    Mode                        : Joint stereo
    Mode extension              : MS Stereo
    Codec ID                    : A_MPEG/L3
    Codec ID/Hint               : MP3
    Duration                    : 1h 36mn
    Bit rate mode               : Constant
    Bit rate                    : 128 Kbps
    Channel(s)                  : 2 channels
    Sampling rate               : 44.1 KHz
    Frame rate                  : 38.281 fps (1152 spf)
    Compression mode            : Lossy
    Stream size                 : 88.2 MiB (1%)
    Title                       : Mux by tamquocgia94.HDVN  Sync by HaiNguyen
    Writing library             : LAME3.99.5
    Language                    : Vietnamese
    Default                     : No
    Forced                      : No


    Audio Big Thank @nguyennguyen123456789
    Link Tải Phim
    Nhấn nút Cảm ơn (dưới chân bài) để thấy link!
     
    Chỉnh sửa cuối: 19/5/20
  2. fantasyyy

    fantasyyy Member

    Tham gia ngày:
    12/2/10
    Bài viết:
    48
    Đã được cảm ơn:
    19
    Phim này lâu rồi xem lại vẩn hay. Định kiếm lại phim này xem mà không biết tựa gì mà tìm. Hôm nay vô tình ta gặp lại em yêu :)
     
    tamquocgia94 cảm ơn bài này.
  3. tamquocgia94

    tamquocgia94 Well-Known Member

    Tham gia ngày:
    30/10/17
    Bài viết:
    1,348
    Đã được cảm ơn:
    48,689
    Giới tính:
    Nam
    Nghề nghiệp:
    Osin tổng thống
    Nơi ở:
    Dubai
    :):):)
     
    ncharchitect cảm ơn bài này.
  4. ncharchitect

    ncharchitect New Member

    Tham gia ngày:
    13/12/12
    Bài viết:
    3
    Đã được cảm ơn:
    0
    sao không download được thớt
     
  5. ncharchitect

    ncharchitect New Member

    Tham gia ngày:
    13/12/12
    Bài viết:
    3
    Đã được cảm ơn:
    0
    các bác ai có cho mình link tải mới với ạ
     

Chia sẻ trang này