[Hành động] Last Man Down 2021 720p BluRay x264 DTS- Báo Thù

Thảo luận trong '4share.vn' bắt đầu bởi xemaydinh, 25/10/21.

  1. xemaydinh

    xemaydinh Tem

    Tham gia ngày:
    3/7/10
    Bài viết:
    31,395
    Đã được cảm ơn:
    141,483
    Last Man Down 2021 720p BluRay x264 DTS-MT

    Báo Thù
    [​IMG]



    Genre : Action

    John Wood left the pieces of a broken civilisation behind, to go back to his roots in the woodland, after a virus pandemic struck the world.


    Video
    ID : 1
    Format : AVC
    Format/Info : Advanced Video Codec
    Format profile : [email protected]
    Format settings : CABAC / 12 Ref Frames
    Format settings, CABAC : Yes
    Format settings, Reference frames : 12 frames
    Codec ID : V_MPEG4/ISO/AVC
    Duration : 1 h 27 min
    Bit rate : 3 197 kb/s
    Width : 1 280 pixels
    Height : 502 pixels
    Display aspect ratio : 2.550
    Frame rate mode : Constant
    Frame rate : 23.976 (24000/1001) FPS
    Color space : YUV
    Chroma subsampling : 4:2:0
    Bit depth : 8 bits
    Scan type : Progressive
    Bits/(Pixel*Frame) : 0.208
    Stream size : 1.96 GiB (68%)
    Writing library : x264 core 157 r2938 2b00a84 [email protected] Mod
    Encoding settings : cabac=1 / ref=12 / deblock=1:-3:-3 / analyse=0x3:0x133 / me=umh / subme=10 / psy=1 / psy_rd=1.05:0.00 / mixed_ref=1 / me_range=32 / chroma_me=1 / trellis=2 / 8x8dct=1 / cqm=0 / deadzone=21,11 / fast_pskip=0 / chroma_qp_offset=-2 / threads=12 / lookahead_threads=2 / sliced_threads=0 / nr=0 / decimate=0 / interlaced=0 / bluray_compat=0 / constrained_intra=0 / bframes=8 / b_pyramid=2 / b_adapt=2 / b_bias=0 / direct=3 / weightb=1 / open_gop=0 / weightp=2 / keyint=250 / keyint_min=24 / scenecut=40 / intra_refresh=0 / rc_lookahead=250 / rc=crf / mbtree=0 / crf=16.8 / qcomp=0.60 / qpmin=0 / qpmax=69 / qpstep=4 / vbv_maxrate=62500 / vbv_bufsize=78125 / crf_max=0.0 / nal_hrd=none / filler=0 / ip_ratio=1.30 / pb_ratio=1.20 / aq=3:0.80
    Language : English
    Default : Yes
    Forced : No
    Color range : Limited
    Color primaries : BT.709
    Matrix coefficients : BT.709

    Audio
    ID : 2
    Format : DTS
    Format/Info : Digital Theater Systems
    Codec ID : A_DTS
    Duration : 1 h 27 min
    Bit rate mode : Constant
    Bit rate : 1 509 kb/s
    Channel(s) : 6 channels
    Channel layout : C L R Ls Rs LFE
    Sampling rate : 48.0 kHz
    Frame rate : 93.750 FPS (512 SPF)
    Bit depth : 16 bits
    Compression mode : Lossy
    Stream size : 947 MiB (32%)
    Language : English
    Default : Yes
    Forced : No

    Text
    ID : 3
    Format : UTF-8
    Codec ID : S_TEXT/UTF8
    Codec ID/Info : UTF-8 Plain Text
    Duration : 1 h 24 min
    Bit rate : 22 b/s
    Count of elements : 624
    Stream size : 13.9 KiB (0%)
    Title : SRT
    Language : English
    Default : Yes
    Forced : No

    Menu
    00:00:00.000 : Chapter 01
    00:09:48.588 : Chapter 02
    00:18:53.758 : Chapter 03
    00:27:09.503 : Chapter 04
    00:36:04.621 : Chapter 05
    00:45:36.776 : Chapter 06
    00:54:28.140 : Chapter 07
    01:02:37.170 : Chapter 08
    01:10:29.851 : Chapter 09
    01:19:50.744 : Chapter 10
    01:25:38.508 : Chapter 11



    mhd https://www.hdvietnam.com/threads/h...-m1080p-bluray-dd5-1x264-xmd-bao-thu.1721263/

    720p https://www.hdvietnam.com/threads/hanh-dong-last-man-down-2021-720p-bluray-x264-dts-bao-thu.1721266/

    1080p https://www.hdvietnam.com/threads/h...0p-bluray-dts-hd-ma-5-1-x264-bao-thu.1721262/

    Thuyết minh

    Remux https://www.hdvietnam.com/threads/h...-remux-avc-dts-hd-ma-5-1-fgt-bao-thu.1722905/

    ISO https://www.hdvietnam.com/threads/h...1080p-avc-dts-hd-ma5-1-mteam-bao-thu.1722894/
     
  2. Đang tải...


Chia sẻ trang này