[Fshare] [Hành Động & Phiêu Lưu] Chinese Zodiac 2012 ViE 1080p BluRay x264-aBD - 12 Con Giáp

Thảo luận trong 'Phim có audio Việt' bắt đầu bởi tamquocgia94, 24/5/20.

  1. tamquocgia94

    tamquocgia94 Well-Known Member

    Tham gia ngày:
    30/10/17
    Bài viết:
    1,348
    Đã được cảm ơn:
    48,694
    Giới tính:
    Nam
    Nghề nghiệp:
    Osin tổng thống
    Nơi ở:
    Dubai
    Chinese Zodiac 2012 ViE 1080p BluRay x264-aBD - 12 Con Giáp
    (Thành Long, Diêu Tinh Đồng, Lâm Phụng Kiều, Kwon Sang-woo)
    Thuyết Minh + Sub Việt Mux Sẵn
    [​IMG]
    [​IMG]

    Mã:
    General
    Unique ID                   : 235659558322276317844581711906021797718 (0xB14A6148089479B5A5E65E08EDDB6F56)
    Complete name               : C:\Users\tamquocgia\Downloads\Chinese.Zodiac.2012.ViE.1080p.BluRay.x264-aBD.mkv
    Format                      : Matroska
    Format version              : Version 4 / Version 2
    File size                   : 9.26 GiB
    Duration                    : 2h 2mn
    Overall bit rate mode       : Variable
    Overall bit rate            : 10.8 Mbps
    Encoded date                : UTC 2020-05-24 09:50:28
    
    
    Writing application         : mkvmerge v7.9.0 ('Birds') 32bit
    Writing library             : libebml v1.3.1 + libmatroska v1.4.2
    Video
    ID                          : 1
    Format                      : AVC
    Format/Info                 : Advanced Video Codec
    Format profile              : [email protected]
    Format settings, CABAC      : Yes
    Format settings, ReFrames   : 5 frames
    Codec ID                    : V_MPEG4/ISO/AVC
    Duration                    : 2h 2mn
    Bit rate                    : 8 665 Kbps
    Width                       : 1 920 pixels
    Height                      : 816 pixels
    Display aspect ratio        : 2.35:1
    Frame rate mode             : Constant
    Frame rate                  : 24.000 fps
    Color space                 : YUV
    Chroma subsampling          : 4:2:0
    Bit depth                   : 8 bits
    Scan type                   : Progressive
    Bits/(Pixel*Frame)          : 0.230
    Stream size                 : 7.44 GiB (80%)
    Writing library             : x264 core 140 r2377 1ca7bb9
    Encoding settings           : cabac=1 / ref=5 / deblock=1:-1:-1 / analyse=0x3:0x113 / me=umh / subme=7 / psy=1 / psy_rd=1.00:0.00 / mixed_ref=1 / me_range=16 / chroma_me=1 / trellis=1 / 8x8dct=1 / cqm=0 / deadzone=21,11 / fast_pskip=1 / chroma_qp_offset=-2 / threads=12 / lookahead_threads=2 / sliced_threads=0 / nr=0 / decimate=1 / interlaced=0 / bluray_compat=0 / constrained_intra=0 / bframes=3 / b_pyramid=2 / b_adapt=2 / b_bias=0 / direct=3 / weightb=1 / open_gop=0 / weightp=2 / keyint=250 / keyint_min=24 / scenecut=40 / intra_refresh=0 / rc_lookahead=40 / rc=2pass / mbtree=1 / bitrate=8665 / ratetol=1.0 / qcomp=0.60 / qpmin=0 / qpmax=69 / qpstep=4 / cplxblur=20.0 / qblur=0.5 / vbv_maxrate=50000 / vbv_bufsize=50000 / nal_hrd=none / filler=0 / ip_ratio=1.40 / aq=1:1.00
    Language                    : Chinese
    Default                     : Yes
    Forced                      : No
    Audio #1
    ID                          : 2
    Format                      : FLAC
    Format/Info                 : Free Lossless Audio Codec
    Codec ID                    : A_FLAC
    Duration                    : 2h 2mn
    Bit rate mode               : Variable
    Bit rate                    : 607 Kbps
    Channel(s)                  : 2 channels
    Channel positions           : Front: L R
    Sampling rate               : 44.1 KHz
    Frame rate                  : 9.407 fps (4688 spf)
    Bit depth                   : 16 bits
    Stream size                 : 534 MiB (6%)
    Title                       : Thuyết Minh - Mux by tamquocgia94.HDVN - @Syned by VAV
    Writing library             : libFLAC 20080709 (UTC 2008-07-09)
    Language                    : Vietnamese
    Default                     : No
    Forced                      : Yes
    Audio #2
    ID                          : 3
    Format                      : DTS
    Format/Info                 : Digital Theater Systems
    Mode                        : 16
    Format settings, Endianness : Big
    Codec ID                    : A_DTS
    Duration                    : 2h 2mn
    Bit rate mode               : Constant
    Bit rate                    : 1 509 Kbps
    Channel(s)                  : 6 channels
    Channel positions           : Front: L C R, Side: L R, LFE
    Sampling rate               : 48.0 KHz
    Frame rate                  : 93.750 fps (512 spf)
    Bit depth                   : 24 bits
    Compression mode            : Lossy
    Stream size                 : 1.30 GiB (14%)
    Language                    : Chinese
    Default                     : Yes
    Forced                      : No
    Text #1
    ID                          : 4
    Format                      : UTF-8
    Codec ID                    : S_TEXT/UTF8
    Codec ID/Info               : UTF-8 Plain Text
    Duration                    : 1h 59mn
    Bit rate                    : 80 bps
    Count of elements           : 1977
    Stream size                 : 69.8 KiB (0%)
    Language                    : Vietnamese
    Default                     : No
    Forced                      : No
    Text #2
    ID                          : 5
    Format                      : UTF-8
    Codec ID                    : S_TEXT/UTF8
    Codec ID/Info               : UTF-8 Plain Text
    Duration                    : 1h 55mn
    Bit rate                    : 56 bps
    Count of elements           : 1928
    Stream size                 : 47.6 KiB (0%)
    Language                    : English
    Default                     : Yes
    Forced                      : No
    Link Tải Phim
    Nhấn nút Cảm ơn (dưới chân bài) để thấy link!
     
  2. HảiYến2k

    HảiYến2k Well-Known Member

    Tham gia ngày:
    5/7/19
    Bài viết:
    804
    Đã được cảm ơn:
    524
    Giới tính:
    Nữ
    Bác chủ repup với a
     
  3. thanhnguyen2075

    thanhnguyen2075 Well-Known Member

    Tham gia ngày:
    2/5/12
    Bài viết:
    360
    Đã được cảm ơn:
    6,852
    bạn ơi reup lại được k?
     
  4. hungdaive

    hungdaive Member

    Tham gia ngày:
    9/9/09
    Bài viết:
    74
    Đã được cảm ơn:
    3
    Linh tèo rồi thớt
     

Chia sẻ trang này