[Fshare] [Hành Động] Skyfall 2012 ViE 1080p BluRay AC3 x264-WiKi

Thảo luận trong 'Phim có audio Việt' bắt đầu bởi tamquocgia94, 21/5/20.

  1. tamquocgia94

    tamquocgia94 Well-Known Member

    Tham gia ngày:
    30/10/17
    Bài viết:
    1,348
    Đã được cảm ơn:
    48,694
    Giới tính:
    Nam
    Nghề nghiệp:
    Osin tổng thống
    Nơi ở:
    Dubai
    Skyfall 2012 ViE 1080p BluRay AC3 x264-WiKi
    (Daniel Craig, Javier BardemBérénice Marlohe, Naomie Harris)
    Thuyết Minh + Sub Việt Mux Sẵn
    [​IMG]
    [​IMG]

    Mã:
    General
    Unique ID                   : 215255984318999779274889196946177577736 (0xA1F0CB6A4E57283B8B1E2612612ED308)
    Complete name               : C:\Users\tamquocgia\Downloads\Skyfall.2012.ViE.1080p.BluRay.AC3.x264-WiKi.mkv
    Format                      : Matroska
    Format version              : Version 4 / Version 2
    File size                   : 16.6 GiB
    Duration                    : 2h 23mn
    Overall bit rate            : 16.6 Mbps
    Movie name                  : Skyfall.2012.ViE.720p.BluRay.DTS.x264-TayTO&VAV
    Encoded date                : UTC 2020-05-21 01:48:45
    
    
    Writing application         : mkvmerge v7.9.0 ('Birds') 32bit
    Writing library             : libebml v1.3.1 + libmatroska v1.4.2
    Video
    ID                          : 1
    Format                      : AVC
    Format/Info                 : Advanced Video Codec
    Format profile              : [email protected]
    Format settings, CABAC      : Yes
    Format settings, ReFrames   : 5 frames
    Codec ID                    : V_MPEG4/ISO/AVC
    Duration                    : 2h 23mn
    Bit rate                    : 14.5 Mbps
    Width                       : 1 920 pixels
    Height                      : 800 pixels
    Display aspect ratio        : 2.40:1
    Frame rate mode             : Constant
    Frame rate                  : 23.976 (24000/1001) fps
    Color space                 : YUV
    Chroma subsampling          : 4:2:0
    Bit depth                   : 8 bits
    Scan type                   : Progressive
    Bits/(Pixel*Frame)          : 0.393
    Stream size                 : 14.5 GiB (87%)
    Writing library             : x264 core 125 r2200 999b753
    Encoding settings           : cabac=1 / ref=5 / deblock=1:-3:-3 / analyse=0x3:0x133 / me=umh / subme=11 / psy=1 / psy_rd=1.05:0.10 / mixed_ref=1 / me_range=64 / chroma_me=1 / trellis=2 / 8x8dct=1 / cqm=0 / deadzone=21,11 / fast_pskip=0 / chroma_qp_offset=-3 / threads=12 / lookahead_threads=2 / sliced_threads=0 / nr=0 / decimate=1 / interlaced=0 / bluray_compat=0 / constrained_intra=0 / bframes=8 / b_pyramid=2 / b_adapt=2 / b_bias=0 / direct=3 / weightb=1 / open_gop=0 / weightp=2 / keyint=250 / keyint_min=23 / scenecut=40 / intra_refresh=0 / rc_lookahead=60 / rc=2pass / mbtree=1 / bitrate=14486 / ratetol=1.0 / qcomp=0.60 / qpmin=0 / qpmax=69 / qpstep=4 / cplxblur=20.0 / qblur=0.5 / vbv_maxrate=40000 / vbv_bufsize=30000 / nal_hrd=none / ip_ratio=1.40 / aq=1:0.90
    Language                    : English
    Default                     : Yes
    Forced                      : No
    Audio #1
    ID                          : 2
    Format                      : AC-3
    Format/Info                 : Audio Coding 3
    Mode extension              : CM (complete main)
    Format settings, Endianness : Big
    Codec ID                    : A_AC3
    Duration                    : 2h 23mn
    Bit rate mode               : Constant
    Bit rate                    : 640 Kbps
    Channel(s)                  : 6 channels
    Channel positions           : Front: L C R, Side: L R, LFE
    Sampling rate               : 48.0 KHz
    Frame rate                  : 31.250 fps (1536 spf)
    Compression mode            : Lossy
    Stream size                 : 655 MiB (4%)
    Title                       : Mux tamquocgia94.HDVN @Syned by Thịt Nướng NetHD.Org
    Language                    : Vietnamese
    Default                     : No
    Forced                      : No
    Audio #2
    ID                          : 3
    Format                      : DTS
    Format/Info                 : Digital Theater Systems
    Mode                        : 16
    Format settings, Endianness : Big
    Codec ID                    : A_DTS
    Duration                    : 2h 23mn
    Bit rate mode               : Constant
    Bit rate                    : 1 509 Kbps
    Channel(s)                  : 6 channels
    Channel positions           : Front: L C R, Side: L R, LFE
    Sampling rate               : 48.0 KHz
    Frame rate                  : 93.750 fps (512 spf)
    Bit depth                   : 24 bits
    Compression mode            : Lossy
    Stream size                 : 1.51 GiB (9%)
    Language                    : English
    Default                     : Yes
    Forced                      : No
    Text
    ID                          : 4
    Format                      : UTF-8
    Codec ID                    : S_TEXT/UTF8
    Codec ID/Info               : UTF-8 Plain Text
    Duration                    : 2h 17mn
    Bit rate                    : 47 bps
    Count of elements           : 1161
    Stream size                 : 47.3 KiB (0%)
    Language                    : Vietnamese
    Default                     : Yes
    Forced                      : No


    Link Tải Phim
    Nhấn nút Cảm ơn (dưới chân bài) để thấy link!

    Các Phần Khác

    Nhấn nút Cảm ơn (dưới chân bài) để thấy link!
     
    Chỉnh sửa cuối: 22/5/20
  2. victo296

    victo296 New Member

    Tham gia ngày:
    21/5/20
    Bài viết:
    17
    Đã được cảm ơn:
    9
    Giới tính:
    Nam
    Thanks bác đã chia sẻ nhé. Tải ngay mới dc
     
    tamquocgia94 cảm ơn bài này.
  3. Ryotamnguyen

    Ryotamnguyen New Member

    Tham gia ngày:
    21/5/20
    Bài viết:
    1
    Đã được cảm ơn:
    1
    Giới tính:
    Nam
    Ko thấy link
     
    tamquocgia94 cảm ơn bài này.
  4. tamquocgia94

    tamquocgia94 Well-Known Member

    Tham gia ngày:
    30/10/17
    Bài viết:
    1,348
    Đã được cảm ơn:
    48,694
    Giới tính:
    Nam
    Nghề nghiệp:
    Osin tổng thống
    Nơi ở:
    Dubai
    Nhấn cám ơn xong rồi f5 sẽ thấy link nha bạn
     

Chia sẻ trang này