[Hành Động] Survive the Game 2021 1080p Bluray DTS-HD MA 5.1 x264- Trò Chơi Sống Còn

Thảo luận trong 'Fshare.vn' bắt đầu bởi xemaydinh, 8/10/21.

  1. xemaydinh

    xemaydinh Tem

    Tham gia ngày:
    3/7/10
    Bài viết:
    32,800
    Đã được cảm ơn:
    146,456
    Survive the Game 2021 1080p Bluray DTS-HD MA 5.1 x264-EVO

    Trò Chơi Sống Còn

    [​IMG]



    A Man's life on his farm is interrupted when a cop and a pair of dangerous criminals show up.

    General

    Filename.......: Survive.the.Game.2021.1080p.Bluray.DTS-HD.MA.5.1.X264-EVO.mkv
    FileSize.......: 11.7 GiB
    Duration.......: 1 h 36 min


    Video
    Codec..........: AVC x264 [email protected]
    Resolution.....: 1920x804
    Aspect ratio...: 2.40:1
    Bit rate.......:
    Frame rate.....: 23.976 fps


    Audio
    Language.......: English
    Channels.......: 6 CH
    Format.........: Dolby Digital
    Bit rate.......: 640 kb/s
    (Surround)


    Audio (#2)
    Language.......: English
    Channels.......: 6 CH
    Format.........: DTS-HD Master Audio
    Bit rate.......:
    (Surround)



    mhd https://www.hdvietnam.com/threads/h...uray-dd5-1x264-xmd-tro-choi-song-con.1720429/

    720p https://www.hdvietnam.com/threads/h...0p-bluray-x264-dts-tro-choi-song-con.1720428/

    1080p https://hdvietnam.com/threads/hanh-...dts-hd-ma-5-1-x264-tro-choi-song-con.1719010/

    Thuyết minh

    Remux https://www.hdvietnam.com/threads/h...s-hd-ma-5-1-triton-tro-choi-song-con.1720876/

    ISO
     
    Chỉnh sửa cuối: 13/10/21
  2. Đang tải...


  3. thichdua

    thichdua Well-Known Member

    Tham gia ngày:
    21/9/11
    Bài viết:
    197
    Đã được cảm ơn:
    689
    dđơi sub việt
     
  4. xemaydinh

    xemaydinh Tem

    Tham gia ngày:
    3/7/10
    Bài viết:
    32,800
    Đã được cảm ơn:
    146,456

    lúc nào có e thông báo bác sau
     
  5. thichdua

    thichdua Well-Known Member

    Tham gia ngày:
    21/9/11
    Bài viết:
    197
    Đã được cảm ơn:
    689
    có thuyết minh nữa thì tuyệt lun bác
     
  6. xemaydinh

    xemaydinh Tem

    Tham gia ngày:
    3/7/10
    Bài viết:
    32,800
    Đã được cảm ơn:
    146,456
    Survive the Game 2021 1080p BluRay x264 DTS-HD MA.5.1-MT

    Trò Chơi Sống Còn

    [​IMG]



    Video
    ID : 1
    Format : AVC
    Format/Info : Advanced Video Codec
    Format profile : [email protected]
    Format settings : CABAC / 5 Ref Frames
    Format settings, CABAC : Yes
    Format settings, Reference frames : 5 frames
    Codec ID : V_MPEG4/ISO/AVC
    Duration : 1 h 36 min
    Bit rate : 22.2 Mb/s
    Width : 1 920 pixels
    Height : 804 pixels
    Display aspect ratio : 2.40:1
    Frame rate mode : Constant
    Frame rate : 23.976 (24000/1001) FPS
    Color space : YUV
    Chroma subsampling : 4:2:0
    Bit depth : 8 bits
    Scan type : Progressive
    Bits/(Pixel*Frame) : 0.599
    Stream size : 14.9 GiB (85%)
    Writing library : x264 core 157 r2938 2b00a84 [email protected] Mod
    Encoding settings : cabac=1 / ref=5 / deblock=1:-3:-3 / analyse=0x3:0x133 / me=umh / subme=10 / psy=1 / psy_rd=1.05:0.00 / mixed_ref=1 / me_range=32 / chroma_me=1 / trellis=2 / 8x8dct=1 / cqm=0 / deadzone=21,11 / fast_pskip=0 / chroma_qp_offset=-2 / threads=12 / lookahead_threads=2 / sliced_threads=0 / nr=0 / decimate=0 / interlaced=0 / bluray_compat=0 / constrained_intra=0 / bframes=8 / b_pyramid=2 / b_adapt=2 / b_bias=0 / direct=3 / weightb=1 / open_gop=0 / weightp=2 / keyint=250 / keyint_min=24 / scenecut=40 / intra_refresh=0 / rc_lookahead=250 / rc=crf / mbtree=0 / crf=16.8 / qcomp=0.60 / qpmin=0 / qpmax=69 / qpstep=4 / vbv_maxrate=62500 / vbv_bufsize=78125 / crf_max=0.0 / nal_hrd=none / filler=0 / ip_ratio=1.30 / pb_ratio=1.20 / aq=3:0.80
    Language : English
    Default : Yes
    Forced : No
    Color range : Limited
    Color primaries : BT.709
    Matrix coefficients : BT.709

    Audio
    ID : 2
    Format : DTS XLL
    Format/Info : Digital Theater Systems
    Commercial name : DTS-HD Master Audio
    Codec ID : A_DTS
    Duration : 1 h 36 min
    Bit rate mode : Variable
    Bit rate : 4 019 kb/s
    Channel(s) : 6 channels
    Channel layout : C L R Ls Rs LFE
    Sampling rate : 48.0 kHz
    Frame rate : 93.750 FPS (512 SPF)
    Bit depth : 24 bits
    Compression mode : Lossless
    Stream size : 2.71 GiB (15%)
    Language : English
    Default : Yes
    Forced : No

    Text #1
    ID : 3
    Format : UTF-8
    Codec ID : S_TEXT/UTF8
    Codec ID/Info : UTF-8 Plain Text
    Duration : 1 h 32 min
    Bit rate : 38 b/s
    Count of elements : 944
    Stream size : 26.2 KiB (0%)
    Title : SRT
    Language : English
    Default : Yes
    Forced : No

    Text #2
    ID : 4
    Format : PGS
    Muxing mode : zlib
    Codec ID : S_HDMV/PGS
    Codec ID/Info : Picture based subtitle format used on BDs/HD-DVDs
    Duration : 1 h 33 min
    Bit rate : 27.5 kb/s
    Count of elements : 2208
    Stream size : 18.3 MiB (0%)
    Language : English
    Default : No
    Forced : No

    Menu
    00:00:00.000 : Chapter 01
    00:05:20.320 : Chapter 02
    00:11:58.009 : Chapter 03
    00:18:22.351 : Chapter 04
    00:23:16.103 : Chapter 05
    00:28:51.271 : Chapter 06
    00:36:05.914 : Chapter 07
    00:41:29.779 : Chapter 08
    00:47:46.072 : Chapter 09
    00:53:09.937 : Chapter 10
    00:59:22.392 : Chapter 11
    01:04:42.837 : Chapter 12
    01:11:05.595 : Chapter 13
    01:19:50.202 : Chapter 14
    01:27:14.771 : Chapter 15
    01:32:28.042 : Chapter 16



    mhd https://www.hdvietnam.com/threads/h...uray-dd5-1x264-xmd-tro-choi-song-con.1720429/

    720p https://www.hdvietnam.com/threads/h...0p-bluray-x264-dts-tro-choi-song-con.1720428/

    1080p https://hdvietnam.com/threads/hanh-...dts-hd-ma-5-1-x264-tro-choi-song-con.1719010/

    Thuyết minh

    Remux

    ISO
     
    dungdh_dh cảm ơn bài này.
  7. xemaydinh

    xemaydinh Tem

    Tham gia ngày:
    3/7/10
    Bài viết:
    32,800
    Đã được cảm ơn:
    146,456
    Survive the Game 2021 1080p BluRay x264-WoAT

    Trò Chơi Sống Còn

    [​IMG]



    A Man's life on his farm is interrupted when a cop and a pair of dangerous criminals show up.

    RELEASE iNFO
    RELEASE NAME..: Survive.the.Game.2021.1080p.Bluray.x264-WoAT
    RELEASE DATE..: UTC 2021-10-13 13:36:43
    RELEASE SIZE..: 11.7 GiB
    RUNTIME.......: 1 h 36 min
    VIDEO CODEC...: AVC, [email protected]
    FRAMERATE.....: 23.976 (24000/1001) FPS
    BITRATE.......: 13.3 Mb/s
    RESOLUTION....: 1920x804p
    ASPECT RATIO..: 2.40:1
    AUDIO.........: English DTS 6 Channels 4 019 kb/s
    SUBTITLES.....: English
    SUBTITLES.....: Spanish
    SUBTITLES.....: Portuguese



    mhd https://www.hdvietnam.com/threads/h...uray-dd5-1x264-xmd-tro-choi-song-con.1720429/

    720p https://www.hdvietnam.com/threads/h...0p-bluray-x264-dts-tro-choi-song-con.1720428/

    1080p https://hdvietnam.com/threads/hanh-...dts-hd-ma-5-1-x264-tro-choi-song-con.1719010/

    Thuyết minh

    Remux https://www.hdvietnam.com/threads/h...s-hd-ma-5-1-triton-tro-choi-song-con.1720876/

    ISO
     
  8. xemaydinh

    xemaydinh Tem

    Tham gia ngày:
    3/7/10
    Bài viết:
    32,800
    Đã được cảm ơn:
    146,456
  9. xemaydinh

    xemaydinh Tem

    Tham gia ngày:
    3/7/10
    Bài viết:
    32,800
    Đã được cảm ơn:
    146,456
  10. xemaydinh

    xemaydinh Tem

    Tham gia ngày:
    3/7/10
    Bài viết:
    32,800
    Đã được cảm ơn:
    146,456

Chia sẻ trang này