[Hành Động] Survive the Game 2021 720p BluRay x264 DTS- Trò Chơi Sống Còn

Thảo luận trong '4share.vn' bắt đầu bởi xemaydinh, 25/10/21.

  1. xemaydinh

    xemaydinh Tem

    Tham gia ngày:
    3/7/10
    Bài viết:
    31,395
    Đã được cảm ơn:
    141,483
    Survive the Game 2021 720p BluRay x264 DTS - MT

    Trò Chơi Sống Còn

    [​IMG]



    A Man's life on his farm is interrupted when a cop and a pair of dangerous criminals show up.

    Video

    ID : 1
    Format : AVC
    Format/Info : Advanced Video Codec
    Format profile : [email protected]
    Format settings : CABAC / 12 Ref Frames
    Format settings, CABAC : Yes
    Format settings, Reference frames : 12 frames
    Codec ID : V_MPEG4/ISO/AVC
    Duration : 1 h 36 min
    Bit rate : 7 520 kb/s
    Width : 1 280 pixels
    Height : 536 pixels
    Display aspect ratio : 2.40:1
    Frame rate mode : Constant
    Frame rate : 23.976 (24000/1001) FPS
    Color space : YUV
    Chroma subsampling : 4:2:0
    Bit depth : 8 bits
    Scan type : Progressive
    Bits/(Pixel*Frame) : 0.457
    Stream size : 5.07 GiB (83%)
    Writing library : x264 core 157 r2938 2b00a84 [email protected] Mod
    Encoding settings : cabac=1 / ref=12 / deblock=1:-3:-3 / analyse=0x3:0x133 / me=umh / subme=10 / psy=1 / psy_rd=1.05:0.00 / mixed_ref=1 / me_range=32 / chroma_me=1 / trellis=2 / 8x8dct=1 / cqm=0 / deadzone=21,11 / fast_pskip=0 / chroma_qp_offset=-2 / threads=12 / lookahead_threads=2 / sliced_threads=0 / nr=0 / decimate=0 / interlaced=0 / bluray_compat=0 / constrained_intra=0 / bframes=8 / b_pyramid=2 / b_adapt=2 / b_bias=0 / direct=3 / weightb=1 / open_gop=0 / weightp=2 / keyint=250 / keyint_min=24 / scenecut=40 / intra_refresh=0 / rc_lookahead=250 / rc=crf / mbtree=0 / crf=16.8 / qcomp=0.60 / qpmin=0 / qpmax=69 / qpstep=4 / vbv_maxrate=62500 / vbv_bufsize=78125 / crf_max=0.0 / nal_hrd=none / filler=0 / ip_ratio=1.30 / pb_ratio=1.20 / aq=3:0.80
    Language : English
    Default : Yes
    Forced : No
    Color range : Limited
    Color primaries : BT.709
    Matrix coefficients : BT.709

    Audio
    ID : 2
    Format : DTS
    Format/Info : Digital Theater Systems
    Codec ID : A_DTS
    Duration : 1 h 36 min
    Bit rate mode : Constant
    Bit rate : 1 509 kb/s
    Channel(s) : 6 channels
    Channel layout : C L R Ls Rs LFE
    Sampling rate : 48.0 kHz
    Frame rate : 93.750 FPS (512 SPF)
    Bit depth : 24 bits
    Compression mode : Lossy
    Stream size : 1.02 GiB (17%)
    Language : English
    Default : Yes
    Forced : No

    Text
    ID : 3
    Format : UTF-8
    Codec ID : S_TEXT/UTF8
    Codec ID/Info : UTF-8 Plain Text
    Duration : 1 h 32 min
    Bit rate : 38 b/s
    Count of elements : 944
    Stream size : 26.2 KiB (0%)
    Language : English
    Default : No
    Forced : No

    Menu
    00:00:00.000 : Chapter 01
    00:05:20.320 : Chapter 02
    00:11:58.009 : Chapter 03
    00:18:22.351 : Chapter 04
    00:23:16.103 : Chapter 05
    00:28:51.271 : Chapter 06
    00:36:05.914 : Chapter 07
    00:41:29.779 : Chapter 08
    00:47:46.072 : Chapter 09
    00:53:09.937 : Chapter 10
    00:59:22.392 : Chapter 11
    01:04:42.837 : Chapter 12
    01:11:05.595 : Chapter 13
    01:19:50.202 : Chapter 14
    01:27:14.771 : Chapter 15
    01:32:28.042 : Chapter 16



    mhd https://www.hdvietnam.com/threads/h...uray-dd5-1x264-xmd-tro-choi-song-con.1720429/

    720p https://www.hdvietnam.com/threads/h...0p-bluray-x264-dts-tro-choi-song-con.1720428/

    1080p https://hdvietnam.com/threads/hanh-...dts-hd-ma-5-1-x264-tro-choi-song-con.1719010/

    Thuyết minh

    Remux https://www.hdvietnam.com/threads/h...s-hd-ma-5-1-triton-tro-choi-song-con.1720876/

    ISO
     
  2. Đang tải...


Chia sẻ trang này