[Hành Động] Survive the Game 2021 m720p BluRay DD5.1x264-XMD- Trò Chơi Sống Còn

Thảo luận trong 'mHD, SD' bắt đầu bởi xemaydinh, 12/10/21.

  1. xemaydinh

    xemaydinh Tem

    Tham gia ngày:
    3/7/10
    Bài viết:
    32,976
    Đã được cảm ơn:
    148,499
    Survive the Game 2021 m720p BluRay DD5.1x264-XMD

    Trò Chơi Sống Còn

    [​IMG]



    A Man's life on his farm is interrupted when a cop and a pair of dangerous criminals show up.

    Unique ID : 187248557424126587620258643730869817431 (0x8CDEC2A82CBFCF0396571DCBF2F09057)

    Complete name : C:\Survive.the.Game.2021.m720p.BluRay.DD5.1x264-XMD.mkv
    Format : Matroska
    Format version : Version 4
    File size : 1.44 GiB
    Duration : 1 h 36 min
    Overall bit rate : 2 139 kb/s
    Encoded date : UTC 2021-10-12 04:07:38
    Writing application : mkvmerge v8.2.0 ('World of Adventure') 32bit
    Writing library : libebml v1.3.1 + libmatroska v1.4.2

    Video
    ID : 1
    Format : AVC
    Format/Info : Advanced Video Codec
    Format profile : [email protected]
    Format settings : CABAC / 4 Ref Frames
    Format settings, CABAC : Yes
    Format settings, Reference frames : 4 frames
    Codec ID : V_MPEG4/ISO/AVC
    Duration : 1 h 36 min
    Bit rate : 1 500 kb/s
    Width : 1 280 pixels
    Height : 536 pixels
    Display aspect ratio : 2.40:1
    Frame rate mode : Constant
    Frame rate : 23.976 (23976/1000) FPS
    Color space : YUV
    Chroma subsampling : 4:2:0
    Bit depth : 8 bits
    Scan type : Progressive
    Bits/(Pixel*Frame) : 0.091
    Stream size : 1.01 GiB (70%)
    Writing library : x264 core 152 r2851M ba24899
    Encoding settings : cabac=1 / ref=4 / deblock=1:-1:-1 / analyse=0x3:0x113 / me=umh / subme=9 / psy=1 / psy_rd=1.00:0.15 / mixed_ref=1 / me_range=24 / chroma_me=1 / trellis=2 / 8x8dct=1 / cqm=0 / deadzone=21,11 / fast_pskip=1 / chroma_qp_offset=-3 / threads=16 / lookahead_threads=4 / sliced_threads=0 / nr=0 / decimate=1 / interlaced=0 / bluray_compat=0 / constrained_intra=0 / bframes=3 / b_pyramid=2 / b_adapt=2 / b_bias=0 / direct=3 / weightb=1 / open_gop=0 / weightp=2 / keyint=250 / keyint_min=25 / scenecut=40 / intra_refresh=0 / rc_lookahead=50 / rc=2pass / mbtree=1 / bitrate=1500 / ratetol=1.0 / qcomp=0.60 / qpmin=0 / qpmax=69 / qpstep=4 / cplxblur=20.0 / qblur=0.5 / vbv_maxrate=31250 / vbv_bufsize=31250 / nal_hrd=none / filler=0 / ip_ratio=1.40 / aq=3:1.00
    Default : Yes
    Forced : No

    Audio
    ID : 2
    Format : AC-3
    Format/Info : Audio Coding 3
    Commercial name : Dolby Digital
    Codec ID : A_AC3
    Duration : 1 h 36 min
    Bit rate mode : Constant
    Bit rate : 640 kb/s
    Channel(s) : 6 channels
    Channel layout : L R C LFE Ls Rs
    Sampling rate : 48.0 kHz
    Frame rate : 31.250 FPS (1536 SPF)
    Compression mode : Lossy
    Delay relative to video : 78 ms
    Stream size : 442 MiB (30%)
    Title : Surround
    Language : English
    Service kind : Complete Main
    Default : Yes
    Forced : No




    mhd https://www.hdvietnam.com/threads/h...uray-dd5-1x264-xmd-tro-choi-song-con.1720429/

    720p https://www.hdvietnam.com/threads/h...0p-bluray-x264-dts-tro-choi-song-con.1720428/

    1080p https://hdvietnam.com/threads/hanh-...dts-hd-ma-5-1-x264-tro-choi-song-con.1719010/

    Thuyết minh

    Remux

    ISO
     
    Dương Thành Trung cảm ơn bài này.

Chia sẻ trang này