[ Hành Động ] Survivor 2015 720p WEB-DL XviD AC3-RARBG ~ Phản Sát (Emma Thompson, Milla Jovovich,

Thảo luận trong 'WEB-DL, HDTV' bắt đầu bởi thien my, 1/6/15.

  1. thien my

    thien my Well-Known Member

    Tham gia ngày:
    7/12/09
    Bài viết:
    7,810
    Đã được cảm ơn:
    29,757
    Giới tính:
    Nam
    Nghề nghiệp:
    Ăn Không Ngồi rồi
    Nơi ở:
    Hàng xẻng
    Survivor 2015 720p WEB-DL XviD AC3-RARBG
    Phản Sát
    (Emma Thompson, Milla Jovovich, Pierce Brosnan)





    [​IMG]

    Mã:
    Video
    ID                                       : 0
    Format                                   : MPEG-4 Visual
    Format profile                           : [email protected]
    Format settings, BVOP                    : No
    Format settings, QPel                    : No
    Format settings, GMC                     : No warppoints
    Format settings, Matrix                  : Default (H.263)
    Codec ID                                 : XVID
    
    
    Codec ID/Hint                            : XviD
    Duration                                 : 1h 36mn
    Bit rate                                 : 3 467 Kbps
    Width                                    : 1 280 pixels
    Height                                   : 534 pixels
    Display aspect ratio                     : 2.40:1
    Frame rate                               : 23.976 fps
    Color space                              : YUV
    Chroma subsampling                       : 4:2:0
    Bit depth                                : 8 bits
    Scan type                                : Progressive
    Compression mode                         : Lossy
    Bits/(Pixel*Frame)                       : 0.212
    Stream size                              : 2.33 GiB (90%)
    Writing library                          : Lavc56.13.100
    Audio
    ID                                       : 1
    Format                                   : AC-3
    Format/Info                              : Audio Coding 3
    Mode extension                           : CM (complete main)
    Format settings, Endianness              : Big
    Codec ID                                 : 2000
    Duration                                 : 1h 36mn
    Bit rate mode                            : Constant
    Bit rate                                 : 384 Kbps
    Channel(s)                               : 6 channels
    Channel positions                        : Front: L C R, Side: L R, LFE
    Sampling rate                            : 48.0 KHz
    Bit depth                                : 16 bits
    Compression mode                         : Lossy
    Stream size                              : 265 MiB (10%)
    Alignment                                : Aligned on interleaves
    Interleave, duration                     : 42 ms (1.00 video frame)
    Interleave, preload duration             : 512 ms
    

    [​IMG]

    Viên an ninh hàng không, Kate Abbott, được gửi tới Đại sứ quán Mỹ ở Luân Đôn để làm công việc phê duyệt visa của Đại sứ quán. Ở Washington, cô phát hiện một tên xứ Mantơ, cố gắng nhập cảnh vào bang với hộ chiếu giả, và kì lạ thay, quá trình điều tra của cô gặp sự phản đối từ chính trong Đại sứ quán và khi cô phát hiện ra sự bất thường trong hệ thống phê duyệt hộ chiếu. Cuộc sống của cô sau đó rơi vào tình trạng hỗn loạn khi một quả bom nổ tung giết chết nhiều đồng nghiệp của cô và khi cô vùng dậy từ trong đống đổ nát, một người đàn ông bí ẩn đã cố bắn hạ cô với khẩu sung giảm thanh. Vượt mặt các cơ quan chức năng và sát thủ theo chân cô, Kate lần theo dấu vết của bọn khủng bố đến New York, nơi mà cô phát hiện mục tiêu của quả bom là Quảng trường Thời Đại trong đêm giao thừa. Kate có tồn tại đủ lâu để vượt qua các đối thủ của mình trong một trận chiến tuyệt vọng nhằm cứu lấy sự sống của hàng ngàn công dân?​




    [​IMG] [​IMG] [​IMG] [​IMG] [​IMG] [​IMG]


    [​IMG]


    [video=youtube;mGUMmJzL2ng]https://www.youtube.com/watch?v=mGUMmJzL2ng[/video]

    [​IMG]



    Host Chiase.io
    Download Max Speed Mà Không cần Acc VIP
    Hãy Đăng Ký Ngay 1 Tài Khoản Và Trải Nghiệm Nào
    Nhấn nút Cảm ơn (dưới chân bài) để thấy link!

    Subtitles

     
    phaopk, sdtdttk, tittom79 and 7 others like this.
  2. Đang tải...


  3. thien my

    thien my Well-Known Member

    Tham gia ngày:
    7/12/09
    Bài viết:
    7,810
    Đã được cảm ơn:
    29,757
    Giới tính:
    Nam
    Nghề nghiệp:
    Ăn Không Ngồi rồi
    Nơi ở:
    Hàng xẻng
    Ðề: [ Hành Động ] Survivor 2015 720p WEB-DL XviD AC3-RARBG ~ Phản Sát (Emma Thompson, Milla Jovovich, Pierce Brosnan)

    Survivor 2015 720p WEB-DL DD5.1 H.264-RARBG
    Phản Sát
    (Emma Thompson, Milla Jovovich, Pierce Brosnan)





    [​IMG]

    Mã:
    Video
    ID                                       : 1
    Format                                   : AVC
    Format/Info                              : Advanced Video Codec
    Format profile                           : [email protected]
    Format settings, CABAC                   : No
    Format settings, ReFrames                : 2 frames
    Codec ID                                 : V_MPEG4/ISO/AVC
    Duration                                 : 1h 36mn
    Bit rate                                 : 4 044 Kbps
    Width                                    : 1 280 pixels
    Height                                   : 534 pixels
    Display aspect ratio                     : 2.40:1
    Frame rate mode                          : Constant
    Frame rate                               : 23.976 fps
    Color space                              : YUV
    Chroma subsampling                       : 4:2:0
    Bit depth                                : 8 bits
    Scan type                                : Progressive
    Bits/(Pixel*Frame)                       : 0.247
    Stream size                              : 2.72 GiB (90%)
    Title                                    : Survivor.2015.720p.WEB-DL.DD5.1.H264-RARBG
    Language                                 : English
    Default                                  : Yes
    Forced                                   : No
    Color primaries                          : BT.709
    Transfer characteristics                 : BT.709
    Matrix coefficients                      : BT.709
    Color range                              : Limited
    
    Audio
    ID                                       : 2
    Format                                   : AC-3
    Format/Info                              : Audio Coding 3
    Mode extension                           : CM (complete main)
    Format settings, Endianness              : Big
    Codec ID                                 : A_AC3
    Duration                                 : 1h 36mn
    Bit rate mode                            : Constant
    Bit rate                                 : 384 Kbps
    Channel(s)                               : 6 channels
    Channel positions                        : Front: L C R, Side: L R, LFE
    Sampling rate                            : 48.0 KHz
    Bit depth                                : 16 bits
    Compression mode                         : Lossy
    Stream size                              : 265 MiB (8%)
    Title                                    : Survivor.2015.720p.WEB-DL.DD5.1.H264-RARBG
    Language                                 : English
    Default                                  : Yes
    Forced                                   : No
    
    Text
    ID                                       : 3
    Format                                   : UTF-8
    Codec ID                                 : S_TEXT/UTF8
    Codec ID/Info                            : UTF-8 Plain Text
    Language                                 : English
    Default                                  : Yes
    Forced                                   : No
    
    Menu
    00:00:00.000                             : en:1
    00:03:33.000                             : en:2
    00:11:46.000                             : en:3
    00:17:49.000                             : en:4
    00:23:19.000                             : en:5
    00:29:52.000                             : en:6
    00:36:33.000                             : en:7
    00:42:02.000                             : en:8
    00:49:28.000                             : en:9
    00:54:29.000                             : en:10
    01:00:21.000                             : en:11
    01:05:57.000                             : en:12
    01:11:46.000                             : en:13
    01:17:56.000                             : en:14
    01:22:49.000                             : en:15
    01:26:09.000                             : en:16
    

    [​IMG]

    Viên an ninh hàng không, Kate Abbott, được gửi tới Đại sứ quán Mỹ ở Luân Đôn để làm công việc phê duyệt visa của Đại sứ quán. Ở Washington, cô phát hiện một tên xứ Mantơ, cố gắng nhập cảnh vào bang với hộ chiếu giả, và kì lạ thay, quá trình điều tra của cô gặp sự phản đối từ chính trong Đại sứ quán và khi cô phát hiện ra sự bất thường trong hệ thống phê duyệt hộ chiếu. Cuộc sống của cô sau đó rơi vào tình trạng hỗn loạn khi một quả bom nổ tung giết chết nhiều đồng nghiệp của cô và khi cô vùng dậy từ trong đống đổ nát, một người đàn ông bí ẩn đã cố bắn hạ cô với khẩu sung giảm thanh. Vượt mặt các cơ quan chức năng và sát thủ theo chân cô, Kate lần theo dấu vết của bọn khủng bố đến New York, nơi mà cô phát hiện mục tiêu của quả bom là Quảng trường Thời Đại trong đêm giao thừa. Kate có tồn tại đủ lâu để vượt qua các đối thủ của mình trong một trận chiến tuyệt vọng nhằm cứu lấy sự sống của hàng ngàn công dân?​




    [​IMG] [​IMG] [​IMG] [​IMG] [​IMG] [​IMG]


    [​IMG]


    [video=youtube;mGUMmJzL2ng]https://www.youtube.com/watch?v=mGUMmJzL2ng[/video]

    [​IMG]



    Host Chiase.io
    Download Max Speed Mà Không cần Acc VIP
    Hãy Đăng Ký Ngay 1 Tài Khoản Và Trải Nghiệm Nào
    Nhấn nút Cảm ơn (dưới chân bài) để thấy link!

    Subtitles

     
    tittom79, dtran892, twenty4 and 3 others like this.
  4. maikacuabo

    maikacuabo Well-Known Member

    Tham gia ngày:
    11/2/11
    Bài viết:
    137
    Đã được cảm ơn:
    2,316
    Giới tính:
    Nam
    Ðề: [ Hành Động ] Survivor 2015 720p WEB-DL XviD AC3-RARBG ~ Phản Sát (Emma Thompson, Milla Jovovich, Pierce Brosnan)

    PHIM hay thank BAC
     
    twenty4 cảm ơn bài này.
  5. thanhminhnguyentit

    thanhminhnguyentit Active Member

    Tham gia ngày:
    23/8/16
    Bài viết:
    717
    Đã được cảm ơn:
    239
    Giới tính:
    Nam
    Nơi ở:
    Thành phố Băc Ninh
    De nghi huong dan dang ky ,dang nhap
     

Chia sẻ trang này