[Hành Động] The Protege 2021 1080p Bluray DTS-HD MA 5.1 x264 - Nữ Sát Thủ

Thảo luận trong '4share.vn' bắt đầu bởi xemaydinh, 8/10/21.

  1. xemaydinh

    xemaydinh Tem

    Tham gia ngày:
    3/7/10
    Bài viết:
    31,464
    Đã được cảm ơn:
    141,617
    mới cập nhật Remux 4K


    The Protégé 2021 REPACK 1080p BluRay DD+5.1 x264-LoRD - Nữ Sát Thủ

    [​IMG]



    The Protégé xoay quanh câu chuyện về cô nàng Anna từ nhỏ đã được sát thủ huyền thoại Moody nhận nuôi và đào cô trở thành một sát thủ chuyên nghiệp. Khi trưởng thành cô trở thành một sát thủ khét tiếng trên thế giới, nhưng bí ẩn về thân thế của cô vẫn là một ẩn số. Thế nhưng, sau khi người cố vấn của Anna bị sát hại một cách bí ẩn, Anna hợp tác với Rembrandt cũng là một sát thủ hàng đầu, bắt đầu cuộc hành trình tìm kiếm kẻ đã giết anh ta.


    The Protégé 2021 REPACK 1080p BluRay DD+5.1 x264-LoRD


    GENERAL iNFORMATiON
    iMDB LiNK......: https://www.imdb.com/title/tt6079772/
    GENRE..........: |Action|Crime|Thriller||||||
    RELEASE DATE...: 12/10/2021
    NUMBER ENCODE..: 1482
    ENCODER........: barritus


    TECHNICAL iNFORMATiON
    RELEASE NAME...: The Protégé 2021 REPACK 1080p BluRay DD+5.1 x264-LoRD
    RELEASE SiZE...: 10.0 GiB
    RUNTiME........: 1:49:12[h:m:s]
    ViDEO CODEC....: x264,crf,[email protected]
    FRAMERATE......: 23.976 fps
    BiTRATE........: 12.1 Mb/s->Variable
    ASPECT RATiO...: 2.40:1
    RESOLUTiON.....: 1920x804p
    CHAPTERS.......: Yes
    AUDiO#1........: English DD+5.1 @ 1024 Kbps->[Encoded with Adobe Audition]
    SUBTiTLES......: eng-forced,eng,tur->[.srt]
    SOURCE.........: 1080p GER Blu-ray AVC DTS-HD MA 5.1-MONUMENT[Thx!]


    #x264 LOG:
    x264 [info]: frame I:1222 Avg QP:13.16 size:176695
    x264 [info]: frame P:33230 Avg QP:13.32 size:108777
    x264 [info]: frame B:122652 Avg QP:15.44 size:49811
    x264 [info]: consecutive B-frames:2.6% 2.7% 7.0% 12.9% 6.1% 62.6% 2.1% 1.6% 1.2% 2.1%
    Encoded 157104 Frames, 20.62 fps, 12135.72 kb/s ~ Encoding Duration 2:07:01


    #NOTES:REPACK reason: Forced eng sub add, Special Thx Nick007 for help,Enjoy!




    mhd https://www.hdvietnam.com/threads/h...20p-bluray-h264-aac-rarbg-nu-sat-thu.1719664/

    720p https://www.hdvietnam.com/threads/h...2021-720p-bluray-x264-dts-nu-sat-thu.1719570/

    1080p https://www.hdvietnam.com/threads/h...bluray-dts-hd-ma-5-1-x264-nu-sat-thu.1718967/

    4K https://www.hdvietnam.com/threads/4...ehd7-1-hdr-x265-10bit-chd-nu-sat-thu.1721645/

    Thuyết minh

    Remux https://www.hdvietnam.com/threads/h...mux-avc-dts-hd-ma-5-1-fgt-nu-sat-thu.1719566/

    Remux 4K https://www.hdvietnam.com/threads/r...-dovi-truehd-atmos-7-1-playbd-nu-sat.1721611/

    ISO
     
    Chỉnh sửa cuối: 15/10/21
  2. Đang tải...


  3. xemaydinh

    xemaydinh Tem

    Tham gia ngày:
    3/7/10
    Bài viết:
    31,464
    Đã được cảm ơn:
    141,617
    The Protege 2021 1080p BluRay x264 DTS-HD MA.5.1-FGT
    Nữ Sát Thủ


    [​IMG]



    The Protégé xoay quanh câu chuyện về cô nàng Anna từ nhỏ đã được sát thủ huyền thoại Moody nhận nuôi và đào cô trở thành một sát thủ chuyên nghiệp. Khi trưởng thành cô trở thành một sát thủ khét tiếng trên thế giới, nhưng bí ẩn về thân thế của cô vẫn là một ẩn số. Thế nhưng, sau khi người cố vấn của Anna bị sát hại một cách bí ẩn, Anna hợp tác với Rembrandt cũng là một sát thủ hàng đầu, bắt đầu cuộc hành trình tìm kiếm kẻ đã giết anh ta.

    Video
    ID : 1
    Format : AVC
    Format/Info : Advanced Video Codec
    Format profile : [email protected]
    Format settings : CABAC / 4 Ref Frames
    Format settings, CABAC : Yes
    Format settings, Reference frames : 4 frames
    Codec ID : V_MPEG4/ISO/AVC
    Duration : 1 h 49 min
    Bit rate : 11.5 Mb/s
    Width : 1 920 pixels
    Height : 804 pixels
    Display aspect ratio : 2.40:1
    Frame rate mode : Constant
    Frame rate : 23.976 (24000/1001) FPS
    Color space : YUV
    Chroma subsampling : 4:2:0
    Bit depth : 8 bits
    Scan type : Progressive
    Bits/(Pixel*Frame) : 0.311
    Stream size : 8.76 GiB (86%)
    Writing library : x264 core 148 r2795M aaa9aa8
    Encoding settings : cabac=1 / ref=4 / deblock=1:-2:-2 / analyse=0x3:0x113 / me=umh / subme=9 / psy=1 / psy_rd=1.00:0.15 / mixed_ref=1 / me_range=16 / chroma_me=1 / trellis=2 / 8x8dct=1 / cqm=0 / deadzone=21,11 / fast_pskip=1 / chroma_qp_offset=-3 / threads=72 / lookahead_threads=3 / sliced_threads=0 / nr=0 / decimate=1 / interlaced=0 / bluray_compat=0 / constrained_intra=0 / bframes=3 / b_pyramid=2 / b_adapt=1 / b_bias=0 / direct=3 / weightb=1 / open_gop=0 / weightp=2 / keyint=250 / keyint_min=25 / scenecut=40 / intra_refresh=0 / rc_lookahead=50 / rc=2pass / mbtree=1 / bitrate=11500 / ratetol=1.0 / qcomp=0.60 / qpmin=0 / qpmax=69 / qpstep=4 / cplxblur=20.0 / qblur=0.5 / vbv_maxrate=31250 / vbv_bufsize=31250 / nal_hrd=none / filler=0 / ip_ratio=1.40 / aq=1:1.00
    Language : English
    Default : Yes
    Forced : No

    Audio
    ID : 2
    ID in the original source medium : 4353 (0x1101)
    Format : DTS XLL
    Format/Info : Digital Theater Systems
    Commercial name : DTS-HD Master Audio
    Codec ID : A_DTS
    Duration : 1 h 49 min
    Bit rate mode : Variable
    Bit rate : 1 897 kb/s
    Channel(s) : 6 channels
    Channel layout : C L R Ls Rs LFE
    Sampling rate : 48.0 kHz
    Frame rate : 93.750 FPS (512 SPF)
    Bit depth : 16 bits
    Compression mode : Lossless
    Stream size : 1.45 GiB (14%)
    Title : DTS-HD MA 5.1
    Language : English
    Default : Yes
    Forced : No
    Original source medium : Blu-ray

    Text
    ID : 3
    Format : UTF-8
    Codec ID : S_TEXT/UTF8
    Codec ID/Info : UTF-8 Plain Text
    Duration : 1 h 37 min
    Bit rate : 36 b/s
    Count of elements : 784
    Stream size : 25.7 KiB (0%)
    Title : SRT
    Language : English
    Default : Yes
    Forced : No

    Menu
    00:00:00.000 : Chapter 01
    00:11:17.718 : Chapter 02
    00:20:51.541 : Chapter 03
    00:29:48.286 : Chapter 04
    00:38:38.524 : Chapter 05
    00:46:42.049 : Chapter 06
    00:57:00.834 : Chapter 07
    01:05:41.687 : Chapter 08
    01:14:30.424 : Chapter 09
    01:24:01.953 : Chapter 10
    01:33:25.975 : Chapter 11
    01:40:32.776 : Chapter 12




    mhd https://www.hdvietnam.com/threads/h...20p-bluray-h264-aac-rarbg-nu-sat-thu.1719664/

    720p https://www.hdvietnam.com/threads/h...2021-720p-bluray-x264-dts-nu-sat-thu.1719570/

    1080p https://www.hdvietnam.com/threads/h...bluray-dts-hd-ma-5-1-x264-nu-sat-thu.1718967/

    Thuyết minh

    Remux https://www.hdvietnam.com/threads/h...mux-avc-dts-hd-ma-5-1-fgt-nu-sat-thu.1719566/

    ISO
     
  4. xemaydinh

    xemaydinh Tem

    Tham gia ngày:
    3/7/10
    Bài viết:
    31,464
    Đã được cảm ơn:
    141,617
    The Protege 2021 1080p Bluray DTS-HD MA 5.1 x264-EVO - Nữ Sát Thủ


    [​IMG]



    The Protégé xoay quanh câu chuyện về cô nàng Anna từ nhỏ đã được sát thủ huyền thoại Moody nhận nuôi và đào cô trở thành một sát thủ chuyên nghiệp. Khi trưởng thành cô trở thành một sát thủ khét tiếng trên thế giới, nhưng bí ẩn về thân thế của cô vẫn là một ẩn số. Thế nhưng, sau khi người cố vấn của Anna bị sát hại một cách bí ẩn, Anna hợp tác với Rembrandt cũng là một sát thủ hàng đầu, bắt đầu cuộc hành trình tìm kiếm kẻ đã giết anh ta.

    General
    Filename.......: The.Protege.2021.1080p.Bluray.DTS-HD.MA.5.1.X264-EVO.mkv
    FileSize.......: 11.5 GiB
    Duration.......: 1 h 49 min


    Video
    Codec..........: AVC x264 [email protected]
    Resolution.....: 1920x804
    Aspect ratio...: 2.40:1
    Bit rate.......:
    Frame rate.....: 23.976 fps


    Audio
    Language.......: English
    Channels.......: 6 CH
    Format.........: Dolby Digital
    Bit rate.......: 640 kb/s
    (Surround)


    Audio (#2)
    Language.......: English
    Channels.......: 6 CH
    Format.........: DTS-HD Master Audio
    Bit rate.......:
    (Surround)





    mhd https://www.hdvietnam.com/threads/h...20p-bluray-h264-aac-rarbg-nu-sat-thu.1719664/

    720p https://www.hdvietnam.com/threads/h...2021-720p-bluray-x264-dts-nu-sat-thu.1719570/

    1080p https://www.hdvietnam.com/threads/h...bluray-dts-hd-ma-5-1-x264-nu-sat-thu.1718967/

    Thuyết minh

    Remux https://www.hdvietnam.com/threads/h...mux-avc-dts-hd-ma-5-1-fgt-nu-sat-thu.1719566/

    ISO
     
  5. xemaydinh

    xemaydinh Tem

    Tham gia ngày:
    3/7/10
    Bài viết:
    31,464
    Đã được cảm ơn:
    141,617
    mới cập nhật Remux 4K


    The Protege 2021 1080p BluRay DD+7.1.x264-iFT- Nữ Sát Thủ


    [​IMG]



    The Protégé xoay quanh câu chuyện về cô nàng Anna từ nhỏ đã được sát thủ huyền thoại Moody nhận nuôi và đào cô trở thành một sát thủ chuyên nghiệp. Khi trưởng thành cô trở thành một sát thủ khét tiếng trên thế giới, nhưng bí ẩn về thân thế của cô vẫn là một ẩn số. Thế nhưng, sau khi người cố vấn của Anna bị sát hại một cách bí ẩn, Anna hợp tác với Rembrandt cũng là một sát thủ hàng đầu, bắt đầu cuộc hành trình tìm kiếm kẻ đã giết anh ta.

    General
    Unique ID : 33103340733097561293828853546255409009 (0x18E778B562833BA373D989C566745F71)
    Complete name : The.Protégé.2021.1080p.BluRay.DD+7.1.x264-iFT.mkv
    Format : Matroska
    Format version : Version 4
    File size : 11.4 GiB
    Duration : 1 h 48 min
    Overall bit rate : 15.0 Mb/s
    Movie name : The.Protege.2021.1080p.BluRay.DD+7.1.x264-iFT
    Encoded date : UTC 2021-10-13 17:49:37
    Writing application : mkvmerge v62.0.0 ('Apollo') 64-bit
    Writing library : libebml v1.4.2 + libmatroska v1.6.4

    Video
    ID : 1
    Format : AVC
    Format/Info : Advanced Video Codec
    Format profile : [email protected]
    Format settings : CABAC / 5 Ref Frames
    Format settings, CABAC : Yes
    Format settings, Reference frames : 5 frames
    Codec ID : V_MPEG4/ISO/AVC
    Duration : 1 h 48 min
    Bit rate : 13.4 Mb/s
    Width : 1 920 pixels
    Height : 800 pixels
    Display aspect ratio : 2.40:1
    Frame rate mode : Constant
    Frame rate : 23.976 (24000/1001) FPS
    Color space : YUV
    Chroma subsampling : 4:2:0
    Bit depth : 8 bits
    Scan type : Progressive
    Bits/(Pixel*Frame) : 0.365
    Stream size : 10.2 GiB (90%)
    Writing library : x264 core 163 r3059+79M ~ Encoded by Mocunaman in Portugal
    Encoding settings : cabac=1 / ref=5 / deblock=1:-3:-3 / analyse=0x3:0x113 / me=umh / subme=11 / psy=1 / fade_compensate=0.00 / psy_rd=1.00:0.00 / mixed_ref=1 / me_range=48 / chroma_me=1 / trellis=2 / 8x8dct=1 / cqm=0 / deadzone=21,11 / fast_pskip=0 / chroma_qp_offset=-2 / threads=25 / lookahead_threads=6 / sliced_threads=0 / nr=0 / decimate=0 / interlaced=0 / bluray_compat=0 / constrained_intra=0 / fgo=0 / bframes=12 / b_pyramid=2 / b_adapt=2 / b_bias=0 / direct=3 / weightb=1 / open_gop=0 / weightp=2 / keyint=250 / keyint_min=23 / scenecut=40 / intra_refresh=0 / rc_lookahead=60 / rc=crf / mbtree=0 / crf=16.8000 / qcomp=0.65 / qpmin=0:0:0 / qpmax=69:69:69 / qpstep=4 / vbv_maxrate=62500 / vbv_bufsize=78125 / crf_max=0.0 / nal_hrd=none / filler=0 / ip_ratio=1.30 / pb_ratio=1.20 / aq=3:0.80 / aq-sensitivity=10.00 / aq-factor=1.00:1.00:1.00 / aq2=0 / aq3=0 / zones=743,5765,crf=16.3/12879,13012,crf=15.8/25568,26368,crf=15.8/29372,29832,crf=15.8/30552,31692,crf=16.3/37476,45373,crf=16.3/48133,50616,crf=16.3/63984,66120,crf=16.3/96216,98078,crf=16.3/107173,108518,crf=16.3/133094,138042,crf=15.8
    Language : English
    Default : Yes
    Forced : No
    Color range : Limited
    Color primaries : BT.709
    Transfer characteristics : BT.709
    Matrix coefficients : BT.709

    Audio
    ID : 2
    Format : E-AC-3
    Format/Info : Enhanced AC-3
    Commercial name : Dolby Digital Plus
    Format profile : Blu-ray Disc
    Codec ID : A_EAC3
    Duration : 1 h 48 min
    Bit rate mode : Constant
    Bit rate : 1 536 kb/s
    Channel(s) : 8 channels
    Channel layout : L R C LFE Ls Rs Lb Rb
    Sampling rate : 48.0 kHz
    Frame rate : 31.250 FPS (1536 SPF)
    Compression mode : Lossy
    Stream size : 1.17 GiB (10%)
    Title : E-AC3 DD+7.1 1536kbs
    Language : English
    Service kind : Complete Main
    Default : Yes
    Forced : No

    Text #1
    ID : 3
    Format : UTF-8
    Codec ID : S_TEXT/UTF8
    Codec ID/Info : UTF-8 Plain Text
    Duration : 1 h 36 min
    Bit rate : 35 b/s
    Count of elements : 724
    Stream size : 24.9 KiB (0%)
    Title : Full
    Language : English
    Default : No
    Forced : No

    Text #2
    ID : 4
    Format : UTF-8
    Codec ID : S_TEXT/UTF8
    Codec ID/Info : UTF-8 Plain Text
    Duration : 1 h 39 min
    Bit rate : 42 b/s
    Count of elements : 975
    Stream size : 30.7 KiB (0%)
    Title : SDH
    Language : English
    Default : No
    Forced : No

    Text #3
    ID : 5
    Format : UTF-8
    Codec ID : S_TEXT/UTF8
    Codec ID/Info : UTF-8 Plain Text
    Duration : 1 h 40 min
    Bit rate : 37 b/s
    Count of elements : 771
    Stream size : 27.6 KiB (0%)
    Title : Full
    Language : French
    Default : No
    Forced : No

    Text #4
    ID : 6
    Format : PGS
    Muxing mode : zlib
    Codec ID : S_HDMV/PGS
    Codec ID/Info : Picture based subtitle format used on BDs/HD-DVDs
    Duration : 1 h 46 min
    Bit rate : 21.3 kb/s
    Count of elements : 1484
    Stream size : 16.2 MiB (0%)
    Title : Latino
    Language : Spanish
    Default : No
    Forced : No

    Menu
    00:00:00.000 : :Chapter 01
    00:03:42.848 : :Chapter 02
    00:11:16.301 : :Chapter 03
    00:20:44.285 : :Chapter 04
    00:25:32.489 : :Chapter 05
    00:31:32.474 : :Chapter 06
    00:37:53.771 : :Chapter 07
    00:46:41.632 : :Chapter 08
    00:51:49.315 : :Chapter 09
    00:54:49.620 : :Chapter 10
    00:59:55.926 : :Chapter 11
    01:05:41.271 : :Chapter 12
    01:12:48.739 : :Chapter 13
    01:18:25.993 : :Chapter 14
    01:25:31.293 : :Chapter 15
    01:34:57.817 : :Chapter 16




    mhd https://www.hdvietnam.com/threads/h...20p-bluray-h264-aac-rarbg-nu-sat-thu.1719664/

    720p https://www.hdvietnam.com/threads/h...2021-720p-bluray-x264-dts-nu-sat-thu.1719570/

    1080p https://www.hdvietnam.com/threads/h...bluray-dts-hd-ma-5-1-x264-nu-sat-thu.1718967/

    Thuyết minh

    Remux https://www.hdvietnam.com/threads/h...mux-avc-dts-hd-ma-5-1-fgt-nu-sat-thu.1719566/

    Remux 4K https://www.hdvietnam.com/threads/r...-dovi-truehd-atmos-7-1-playbd-nu-sat.1721611/

    ISO
     
  6. xemaydinh

    xemaydinh Tem

    Tham gia ngày:
    3/7/10
    Bài viết:
    31,464
    Đã được cảm ơn:
    141,617
    mới cập nhật Remux 4K


    The Protege 2021 BluRay 1080p x264 Atmos TrueHD7.1-HDChina- Nữ Sát Thủ

    [​IMG]



    The Protégé xoay quanh câu chuyện về cô nàng Anna từ nhỏ đã được sát thủ huyền thoại Moody nhận nuôi và đào cô trở thành một sát thủ chuyên nghiệp. Khi trưởng thành cô trở thành một sát thủ khét tiếng trên thế giới, nhưng bí ẩn về thân thế của cô vẫn là một ẩn số. Thế nhưng, sau khi người cố vấn của Anna bị sát hại một cách bí ẩn, Anna hợp tác với Rembrandt cũng là một sát thủ hàng đầu, bắt đầu cuộc hành trình tìm kiếm kẻ đã giết anh ta.

    The.Protege.2021.BluRay.1080p.x264.Atmos.TrueHD7.1-HDChina

    ----------MEDiA iNFO------------

    SOURCE TYPE.....: BluRay 1080p AVC Atmos TrueHD 7.1
    ViDEO BiTRATE...: x264 L4.1 High @ 13564.35 kb/s
    FRAME RATE......: 23.976 fps
    AUDiO..........: English Atmos TrueHD 7.1 @ 4232 kb/s
    RESOLUTiON......: 1920 x 800
    SUBTiTLE........: Chinese | English
    ENCODER ........: ErickJiang @ HDChina


    ----------x264 iNFO------------

    x264 [info]: frame I:1153 Avg QP:12.79 size:247905
    x264 [info]: frame P:34380 Avg QP:14.61 size:127040
    x264 [info]: frame B:121140 Avg QP:16.01 size: 53048
    x264 [info]: consecutive B-frames: 2.9% 3.7% 8.7% 16.2% 13.3% 37.2% 7.1% 1.4% 2.3% 1.5% 3.3% 2.3%

    urce(Blu-ray) HDChina
    [​IMG] [​IMG] [​IMG] [​IMG] [​IMG] [​IMG] [​IMG] [​IMG] [​IMG] [​IMG] [​IMG] [​IMG]




    Fshare ~ 13.63GB

    https://www.fshare.vn/file/9L133VUCWAG2

    các bản khác

    https://www.fshare.vn/folder/FUT7CSPUUION



    mhd https://www.hdvietnam.com/threads/h...20p-bluray-h264-aac-rarbg-nu-sat-thu.1719664/

    720p https://www.hdvietnam.com/threads/h...2021-720p-bluray-x264-dts-nu-sat-thu.1719570/

    1080p https://www.hdvietnam.com/threads/h...bluray-dts-hd-ma-5-1-x264-nu-sat-thu.1718967/

    4K https://www.hdvietnam.com/threads/4...ehd7-1-hdr-x265-10bit-chd-nu-sat-thu.1721645/

    Thuyết minh

    Remux https://www.hdvietnam.com/threads/h...mux-avc-dts-hd-ma-5-1-fgt-nu-sat-thu.1719566/

    Remux 4K https://www.hdvietnam.com/threads/r...-dovi-truehd-atmos-7-1-playbd-nu-sat.1721611/

    ISO
     

Chia sẻ trang này