[Hành động] The Suicide Squad 2021 720p BluRay x264 DTS -Điệp Vụ Cảm Tử

Thảo luận trong 'Fshare.vn' bắt đầu bởi xemaydinh, 16/10/21.

  1. xemaydinh

    xemaydinh Tem

    Tham gia ngày:
    3/7/10
    Bài viết:
    33,015
    Đã được cảm ơn:
    148,985
    The Suicide Squad 2021 720p BluRay x264 DTS-FGT

    Điệp Vụ Cảm Tử 2021
    [​IMG]


    Phim lấy bối cảnh giả tưởng tại đảo Corto Maltese (Nam Mỹ), quốc gia độc lập vừa trải qua đảo chính. Chế độ mới xây dựng cơ sở thí nghiệm Jotunheim, nghiên cứu Dự án Sao biển có nguy cơ hủy diệt Mỹ và thế giới. Để ngăn chặn, mật vụ Amanda Waller (Viola Davis) tập hợp các ác nhân nổi tiếng trong tù thành Đội đặc nhiệm X. Mỗi tên đều bị gắn bom ở cổ, nếu không tuân phục sẽ chết. Dưới sự chỉ huy của Rick Flag (Joel Kinnaman) và Bloodsport (Idris Elba), biệt đội cảm tử mới chia làm hai phe lên đường thực hiện nhiệm vụ.


    Video
    ID : 1
    Format : AVC
    Format/Info : Advanced Video Codec
    Format profile : [email protected]
    Format settings : CABAC / 4 Ref Frames
    Format settings, CABAC : Yes
    Format settings, Reference frames : 4 frames
    Codec ID : V_MPEG4/ISO/AVC
    Duration : 2 h 12 min
    Bit rate : 5 500 kb/s
    Width : 1 280 pixels
    Height : 674 pixels
    Display aspect ratio : 1.898
    Original display aspect ratio : 1.897
    Frame rate mode : Constant
    Frame rate : 23.976 (24000/1001) FPS
    Color space : YUV
    Chroma subsampling : 4:2:0
    Bit depth : 8 bits
    Scan type : Progressive
    Bits/(Pixel*Frame) : 0.266
    Stream size : 5.08 GiB (78%)
    Writing library : x264 core 148 r2795M aaa9aa8
    Encoding settings : cabac=1 / ref=4 / deblock=1:-2:-2 / analyse=0x3:0x113 / me=umh / subme=9 / psy=1 / psy_rd=1.00:0.15 / mixed_ref=1 / me_range=16 / chroma_me=1 / trellis=2 / 8x8dct=1 / cqm=0 / deadzone=21,11 / fast_pskip=1 / chroma_qp_offset=-3 / threads=72 / lookahead_threads=3 / sliced_threads=0 / nr=0 / decimate=1 / interlaced=0 / bluray_compat=0 / constrained_intra=0 / bframes=3 / b_pyramid=2 / b_adapt=1 / b_bias=0 / direct=3 / weightb=1 / open_gop=0 / weightp=2 / keyint=250 / keyint_min=25 / scenecut=40 / intra_refresh=0 / rc_lookahead=50 / rc=2pass / mbtree=1 / bitrate=5500 / ratetol=1.0 / qcomp=0.60 / qpmin=0 / qpmax=69 / qpstep=4 / cplxblur=20.0 / qblur=0.5 / vbv_maxrate=31250 / vbv_bufsize=31250 / nal_hrd=none / filler=0 / ip_ratio=1.40 / aq=1:1.00
    Language : English
    Default : Yes
    Forced : No

    Audio
    ID : 2
    Format : DTS
    Format/Info : Digital Theater Systems
    Codec ID : A_DTS
    Duration : 2 h 12 min
    Bit rate mode : Constant
    Bit rate : 1 509 kb/s
    Channel(s) : 6 channels
    Channel layout : C L R Ls Rs LFE
    Sampling rate : 48.0 kHz
    Frame rate : 93.750 FPS (512 SPF)
    Bit depth : 24 bits
    Compression mode : Lossy
    Stream size : 1.39 GiB (22%)
    Language : English
    Default : Yes
    Forced : No

    Text
    ID : 3
    Format : UTF-8
    Codec ID : S_TEXT/UTF8
    Codec ID/Info : UTF-8 Plain Text
    Duration : 2 h 11 min
    Bit rate : 44 b/s
    Count of elements : 1420
    Stream size : 42.8 KiB (0%)
    Language : English
    Default : Yes
    Forced : No

    Menu
    00:00:00.000 : en:Chapter 01
    00:14:25.573 : en:Chapter 02
    00:22:08.035 : en:Chapter 03
    00:31:31.973 : en:Chapter 04
    00:40:48.696 : en:Chapter 05
    00:50:20.017 : en:Chapter 06
    01:01:09.666 : en:Chapter 07
    01:10:05.868 : en:Chapter 08
    01:19:44.488 : en:Chapter 09
    01:29:00.710 : en:Chapter 10
    01:40:41.035 : en:Chapter 11
    01:50:36.880 : en:Chapter 12
    01:59:28.494 : en:Chapter 13


    mhd https://www.hdvietnam.com/threads/h...-bluray-dd5-1x264-xmd-diep-vu-cam-tu.1721968/

    720p https://www.hdvietnam.com/threads/h...-720p-bluray-x264-dts-diep-vu-cam-tu.1721966/

    1080p https://www.hdvietnam.com/threads/h...atmos-truehd-7-1-x264-diep-vu-cam-tu.1721873/

    4K-HDR https://www.hdvietnam.com/threads/4...-10bit-hdr-dts-hd-ma-truehd-7-1-atmo.1724448/

    Thuyết minh https://www.hdvietnam.com/threads/h...y-dd-ex-5-1-x264-wiki-diep-vu-cam-tu.1723957/

    Remux https://www.hdvietnam.com/threads/h...d-ma-truehd-7-1-atmos-diep-vu-cam-tu.1722009/

    Remux 4K https://www.hdvietnam.com/threads/r...-hevc-dts-hd-ma-truehd-7-1-atmos-fgt.1723235/

    ISO
     
    Chỉnh sửa cuối: 22/10/21
  2. xemaydinh

    xemaydinh Tem

    Tham gia ngày:
    3/7/10
    Bài viết:
    33,015
    Đã được cảm ơn:
    148,985
    The Suicide Squad 2021 720p BluRay DD-EX 5.1 x264-WiKi

    Điệp Vụ Cảm Tử 2021
    [​IMG]


    Phim lấy bối cảnh giả tưởng tại đảo Corto Maltese (Nam Mỹ), quốc gia độc lập vừa trải qua đảo chính. Chế độ mới xây dựng cơ sở thí nghiệm Jotunheim, nghiên cứu Dự án Sao biển có nguy cơ hủy diệt Mỹ và thế giới. Để ngăn chặn, mật vụ Amanda Waller (Viola Davis) tập hợp các ác nhân nổi tiếng trong tù thành Đội đặc nhiệm X. Mỗi tên đều bị gắn bom ở cổ, nếu không tuân phục sẽ chết. Dưới sự chỉ huy của Rick Flag (Joel Kinnaman) và Bloodsport (Idris Elba), biệt đội cảm tử mới chia làm hai phe lên đường thực hiện nhiệm vụ.

    Release.Info
    ENCODER...................: dong1010
    RELEASE DATE..............: 2021-10-16
    RELEASE SIZE..............: 6.42 GiB
    SOURCE....................: 1080p Blu-ray AVC TrueHD Atmos 7.1-CYBER

    .Media.Info
    RUNTIME...................: 2h:12m:06s
    VIDEO CODEC...............: x264: 2pass-L4.1 @ 6400 Kbps
    RESOLUTION................: 1280x676 (1.893)
    FRAME RATE................: 23.976 fps
    AUDiO CODEC...............: English DD-EX 5.1 @ 448 Kbps
    SUBTiTLES.................: S_TEXT/ASS(chs)/(cht)

    .x264.Info
    x264 [info]: profile High, level 4.1
    x264 [info]: frame I:1688 Avg QP:14.38 size:161319
    x264 [info]: frame P:48591 Avg QP:17.21 size: 60613
    x264 [info]: frame B:139777 Avg QP:19.32 size: 22360
    x264 [info]: consecutive B-frames: 4.1% 5.9% 9.7% 31.2% 17.0% 20.5% 4.7% 5.8% 1.0%



    mhd https://www.hdvietnam.com/threads/h...-bluray-dd5-1x264-xmd-diep-vu-cam-tu.1721968/

    720p https://www.hdvietnam.com/threads/h...-720p-bluray-x264-dts-diep-vu-cam-tu.1721966/

    1080p https://www.hdvietnam.com/threads/h...atmos-truehd-7-1-x264-diep-vu-cam-tu.1721873/

    Thuyết minh

    Remux https://www.hdvietnam.com/threads/h...d-ma-truehd-7-1-atmos-diep-vu-cam-tu.1722009/

    ISO
     
  3. xemaydinh

    xemaydinh Tem

    Tham gia ngày:
    3/7/10
    Bài viết:
    33,015
    Đã được cảm ơn:
    148,985
  4. xemaydinh

    xemaydinh Tem

    Tham gia ngày:
    3/7/10
    Bài viết:
    33,015
    Đã được cảm ơn:
    148,985
  5. xemaydinh

    xemaydinh Tem

    Tham gia ngày:
    3/7/10
    Bài viết:
    33,015
    Đã được cảm ơn:
    148,985

Chia sẻ trang này