[Hành động] The Suicide Squad 2021 m(720p-1080p) BluRay DD5.1x264-XMD -Điệp Vụ Cảm Tử

Thảo luận trong 'mHD, SD' bắt đầu bởi xemaydinh, 16/10/21.

  1. xemaydinh

    xemaydinh Tem

    Tham gia ngày:
    3/7/10
    Bài viết:
    31,323
    Đã được cảm ơn:
    141,311
    The Suicide Squad 2021 m(720p-1080p) BluRay DD5.1x264-XMD

    Điệp Vụ Cảm Tử 2021
    [​IMG]


    Phim lấy bối cảnh giả tưởng tại đảo Corto Maltese (Nam Mỹ), quốc gia độc lập vừa trải qua đảo chính. Chế độ mới xây dựng cơ sở thí nghiệm Jotunheim, nghiên cứu Dự án Sao biển có nguy cơ hủy diệt Mỹ và thế giới. Để ngăn chặn, mật vụ Amanda Waller (Viola Davis) tập hợp các ác nhân nổi tiếng trong tù thành Đội đặc nhiệm X. Mỗi tên đều bị gắn bom ở cổ, nếu không tuân phục sẽ chết. Dưới sự chỉ huy của Rick Flag (Joel Kinnaman) và Bloodsport (Idris Elba), biệt đội cảm tử mới chia làm hai phe lên đường thực hiện nhiệm vụ.


    Unique ID : 252410320293169957347768938536336159374 (0xBDE4759C0EBA3CBEA89FE8E44A18F28E)
    Complete name : C:\The.Suicide.Squad.2021.m720p.BluRay.DD5.1x264-XMD.mkv
    Format : Matroska
    Format version : Version 4
    File size : 1.98 GiB
    Duration : 2 h 12 min
    Overall bit rate : 2 142 kb/s
    Movie name : EVO
    Encoded date : UTC 2021-10-16 02:28:27
    Writing application : mkvmerge v8.2.0 ('World of Adventure') 32bit
    Writing library : libebml v1.3.1 + libmatroska v1.4.2

    Video
    ID : 1
    Format : AVC
    Format/Info : Advanced Video Codec
    Format profile : [email protected]
    Format settings : CABAC / 4 Ref Frames
    Format settings, CABAC : Yes
    Format settings, Reference frames : 4 frames
    Codec ID : V_MPEG4/ISO/AVC
    Duration : 2 h 12 min
    Bit rate : 1 500 kb/s
    Width : 1 280 pixels
    Height : 674 pixels
    Display aspect ratio : 1.896
    Original display aspect ratio : 1.897
    Frame rate mode : Constant
    Frame rate : 23.976 (23976/1000) FPS
    Color space : YUV
    Chroma subsampling : 4:2:0
    Bit depth : 8 bits
    Scan type : Progressive
    Bits/(Pixel*Frame) : 0.073
    Stream size : 1.38 GiB (70%)
    Writing library : x264 core 152 r2851M ba24899
    Encoding settings : cabac=1 / ref=4 / deblock=1:-1:-1 / analyse=0x3:0x113 / me=umh / subme=9 / psy=1 / psy_rd=1.00:0.15 / mixed_ref=1 / me_range=24 / chroma_me=1 / trellis=2 / 8x8dct=1 / cqm=0 / deadzone=21,11 / fast_pskip=1 / chroma_qp_offset=-3 / threads=16 / lookahead_threads=4 / sliced_threads=0 / nr=0 / decimate=1 / interlaced=0 / bluray_compat=0 / constrained_intra=0 / bframes=3 / b_pyramid=2 / b_adapt=2 / b_bias=0 / direct=3 / weightb=1 / open_gop=0 / weightp=2 / keyint=250 / keyint_min=25 / scenecut=40 / intra_refresh=0 / rc_lookahead=50 / rc=2pass / mbtree=1 / bitrate=1500 / ratetol=1.0 / qcomp=0.60 / qpmin=0 / qpmax=69 / qpstep=4 / cplxblur=20.0 / qblur=0.5 / vbv_maxrate=31250 / vbv_bufsize=31250 / nal_hrd=none / filler=0 / ip_ratio=1.40 / aq=3:1.00
    Default : Yes
    Forced : No

    Audio
    ID : 2
    Format : AC-3
    Format/Info : Audio Coding 3
    Commercial name : Dolby Digital
    Codec ID : A_AC3
    Duration : 2 h 12 min
    Bit rate mode : Constant
    Bit rate : 640 kb/s
    Channel(s) : 6 channels
    Channel layout : L R C LFE Ls Rs
    Sampling rate : 48.0 kHz
    Frame rate : 31.250 FPS (1536 SPF)
    Compression mode : Lossy
    Stream size : 605 MiB (30%)
    Language : English
    Service kind : Complete Main
    Default : Yes
    Forced : No
    ......................................................................................

    Unique ID : 226881449018741640965483809236122386952 (0xAAAFC71403313AF2B67C2951FB14C208)
    Complete name : C:\The.Suicide.Squad.2021.m1080p.BluRay.DD5.1x264-XMD.mkv
    Format : Matroska
    Format version : Version 4
    File size : 2.90 GiB
    Duration : 2 h 12 min
    Overall bit rate : 3 142 kb/s
    Movie name : EVO
    Encoded date : UTC 2021-10-16 02:30:45
    Writing application : mkvmerge v8.2.0 ('World of Adventure') 32bit
    Writing library : libebml v1.3.1 + libmatroska v1.4.2

    Video
    ID : 1
    Format : AVC
    Format/Info : Advanced Video Codec
    Format profile : [email protected]
    Format settings : CABAC / 4 Ref Frames
    Format settings, CABAC : Yes
    Format settings, Reference frames : 4 frames
    Codec ID : V_MPEG4/ISO/AVC
    Duration : 2 h 12 min
    Bit rate : 2 500 kb/s
    Width : 1 920 pixels
    Height : 1 012 pixels
    Display aspect ratio : 1.897
    Frame rate mode : Constant
    Frame rate : 23.976 (23976/1000) FPS
    Color space : YUV
    Chroma subsampling : 4:2:0
    Bit depth : 8 bits
    Scan type : Progressive
    Bits/(Pixel*Frame) : 0.054
    Stream size : 2.31 GiB (80%)
    Writing library : x264 core 152 r2851M ba24899
    Encoding settings : cabac=1 / ref=4 / deblock=1:-1:-1 / analyse=0x3:0x113 / me=umh / subme=9 / psy=1 / psy_rd=1.00:0.15 / mixed_ref=1 / me_range=24 / chroma_me=1 / trellis=2 / 8x8dct=1 / cqm=0 / deadzone=21,11 / fast_pskip=1 / chroma_qp_offset=-3 / threads=16 / lookahead_threads=4 / sliced_threads=0 / nr=0 / decimate=1 / interlaced=0 / bluray_compat=0 / constrained_intra=0 / bframes=3 / b_pyramid=2 / b_adapt=2 / b_bias=0 / direct=3 / weightb=1 / open_gop=0 / weightp=2 / keyint=250 / keyint_min=25 / scenecut=40 / intra_refresh=0 / rc_lookahead=50 / rc=2pass / mbtree=1 / bitrate=2500 / ratetol=1.0 / qcomp=0.60 / qpmin=0 / qpmax=69 / qpstep=4 / cplxblur=20.0 / qblur=0.5 / vbv_maxrate=31250 / vbv_bufsize=31250 / nal_hrd=none / filler=0 / ip_ratio=1.40 / aq=3:1.00
    Default : Yes
    Forced : No

    Audio
    ID : 2
    Format : AC-3
    Format/Info : Audio Coding 3
    Commercial name : Dolby Digital
    Codec ID : A_AC3
    Duration : 2 h 12 min
    Bit rate mode : Constant
    Bit rate : 640 kb/s
    Channel(s) : 6 channels
    Channel layout : L R C LFE Ls Rs
    Sampling rate : 48.0 kHz
    Frame rate : 31.250 FPS (1536 SPF)
    Compression mode : Lossy
    Stream size : 605 MiB (20%)
    Language : English
    Service kind : Complete Main
    Default : Yes
    Forced : No



    mhd https://www.hdvietnam.com/threads/h...-bluray-dd5-1x264-xmd-diep-vu-cam-tu.1721968/

    720p https://www.hdvietnam.com/threads/h...-720p-bluray-x264-dts-diep-vu-cam-tu.1721966/

    1080p https://www.hdvietnam.com/threads/h...atmos-truehd-7-1-x264-diep-vu-cam-tu.1721873/

    4K-HDR https://www.hdvietnam.com/threads/4...-10bit-hdr-dts-hd-ma-truehd-7-1-atmo.1724448/

    Thuyết minh https://www.hdvietnam.com/threads/h...y-dd-ex-5-1-x264-wiki-diep-vu-cam-tu.1723957/

    Remux https://www.hdvietnam.com/threads/h...d-ma-truehd-7-1-atmos-diep-vu-cam-tu.1722009/

    Remux 4K https://www.hdvietnam.com/threads/r...-hevc-dts-hd-ma-truehd-7-1-atmos-fgt.1723235/

    ISO
     
    Chỉnh sửa cuối: 22/10/21
  2. Đang tải...


  3. xemaydinh

    xemaydinh Tem

    Tham gia ngày:
    3/7/10
    Bài viết:
    31,323
    Đã được cảm ơn:
    141,311
    cập nhật bản thuyết minh
     
  4. xemaydinh

    xemaydinh Tem

    Tham gia ngày:
    3/7/10
    Bài viết:
    31,323
    Đã được cảm ơn:
    141,311
    The Suicide Squad 2021 ViE mHD BluRay DD5.1 x264-c0kE

    Điệp Vụ Cảm Tử 2021
    [​IMG]


    Phim lấy bối cảnh giả tưởng tại đảo Corto Maltese (Nam Mỹ), quốc gia độc lập vừa trải qua đảo chính. Chế độ mới xây dựng cơ sở thí nghiệm Jotunheim, nghiên cứu Dự án Sao biển có nguy cơ hủy diệt Mỹ và thế giới. Để ngăn chặn, mật vụ Amanda Waller (Viola Davis) tập hợp các ác nhân nổi tiếng trong tù thành Đội đặc nhiệm X. Mỗi tên đều bị gắn bom ở cổ, nếu không tuân phục sẽ chết. Dưới sự chỉ huy của Rick Flag (Joel Kinnaman) và Bloodsport (Idris Elba), biệt đội cảm tử mới chia làm hai phe lên đường thực hiện nhiệm vụ.

    RELEASE NAME..: The.Suicide.Squad.2021.ViE.mHD.BluRay.DD5.1.x264-c0kE
    RELEASE SIZE..: 3.77 GiB
    RUNTIME.......: 2h 12mn 06s
    VIDEO CODEC...: x264, [email protected]
    FRAMERATE.....: 23.976 (24000/1001) fps
    BITRATE.......: 2 789 kb/s
    RESOLUTION....: 1280 x 674
    AUDIO.........: Vietnamese AC3 6 [email protected] Kbps
    AUDIO.........: English AC3 6 [email protected] Kbps
    SUBTITLE......: Vietnamese, English
    SOURCE........: Full Blu-ray
    ENCODER.......: tinhbo

    Note: Use KMP / Splash Pro / MPC / VLC to watch film



    mhd https://www.hdvietnam.com/threads/h...-bluray-dd5-1x264-xmd-diep-vu-cam-tu.1721968/

    720p https://www.hdvietnam.com/threads/h...-720p-bluray-x264-dts-diep-vu-cam-tu.1721966/

    1080p https://www.hdvietnam.com/threads/h...atmos-truehd-7-1-x264-diep-vu-cam-tu.1721873/

    4K-HDR https://www.hdvietnam.com/threads/4...-10bit-hdr-dts-hd-ma-truehd-7-1-atmo.1724448/

    Thuyết minh https://www.hdvietnam.com/threads/h...y-dd-ex-5-1-x264-wiki-diep-vu-cam-tu.1723957/

    Remux https://www.hdvietnam.com/threads/h...d-ma-truehd-7-1-atmos-diep-vu-cam-tu.1722009/

    Remux 4K https://www.hdvietnam.com/threads/r...-hevc-dts-hd-ma-truehd-7-1-atmos-fgt.1723235/

    ISO
     

Chia sẻ trang này